冰冰网

 找回密码
 开放注册,禁止乱回复

只需一步,快速开始

https://www.aapig.com/mp4-683334-p1-1.html
搜索
查看: 2180|回复: 13

[大陆] 迟志强《铁窗泪》[DVD-VOB][115网盘下载][原版MTV][KTV/双音轨]

[复制链接]
 成长值: 1055

4472

主题

4739

帖子

15万

积分

信陵

Rank: 16Rank: 16Rank: 16Rank: 16

UID
1
积分
158122
冰币
476219
威望
741

制作组管理员宣传高手精帖强人蓝钻勋章大富之家晶钻勋章

发表于 2012-8-7 10:49:30 | 显示全部楼层 |阅读模式 |        |

K:\电驴目录\MTV\115\待上传\已传\迟志强《铁窗泪》冰冰高清[www.aapig.com.cn].VOB
   General
      Complete name : K:\电驴目录\MTV\115\待上传\已传\迟志强《铁窗泪》冰冰高清[www.aapig.com.cn].VOB
      Format : MPEG-PS
      File size : 216 MiB
      Duration : 7mn 55s
      Overall bit rate : 3 817 Kbps
   Video #224
      ID : 224 (0xE0)
      Format : MPEG Video
      Format version : Version 2
      Format profile : Main@Main
      Format settings, BVOP : Yes
      Format settings, Matrix : Default
      Format settings, GOP : M=3, N=15
      Duration : 7mn 54s
      Bit rate : 2 973 Kbps
      Maximum bit rate : 3 000 Kbps
      Width : 720 pixels
      Height : 480 pixels
      Display aspect ratio : 4:3
      Frame rate : 29.970 fps
      Standard : NTSC
      Color space : YUV
      Chroma subsampling : 4:2:0
      Bit depth : 8 bits
      Scan type : Interlaced
      Scan order : Bottom Field First
      Compression mode : Lossy
      Bits/(Pixel*Frame) : 0.287
      Stream size : 168 MiB (78%)
   Audio #189-128
      ID : 189 (0xBD)-128 (0x80)
      Format : AC-3
      Format/Info : Audio Coding 3
      Mode extension : CM (complete main)
      Muxing mode : DVD-Video
      Duration : 7mn 55s
      Bit rate mode : Constant
      Bit rate : 384 Kbps
      Channel(s) : 2 channels
      Channel positions : Front: L R
      Sampling rate : 48.0 KHz
      Bit depth : 16 bits
      Compression mode : Lossy
      Stream size : 21.8 MiB (10%)
   Audio #189-129
      ID : 189 (0xBD)-129 (0x81)
      Format : AC-3
      Format/Info : Audio Coding 3
      Mode extension : CM (complete main)
      Muxing mode : DVD-Video
      Duration : 7mn 55s
      Bit rate mode : Constant
      Bit rate : 384 Kbps
      Channel(s) : 2 channels
      Channel positions : Front: L R
      Sampling rate : 48.0 KHz
      Bit depth : 16 bits
      Compression mode : Lossy
      Stream size : 21.8 MiB (10%)



购买主题 已有 5 人购买  本主题需向作者支付 5 冰币 才能浏览, 赚冰币 | 捐助会员免币购买直接查看

1

主题

365

帖子

63

积分

小将

Rank: 2

UID
109679
积分
63
冰币
101
威望
0
发表于 2012-8-22 15:52:47 | 显示全部楼层
楼主很专业,写得很好!
回复 支持 反对

使用道具 举报

1

主题

365

帖子

63

积分

小将

Rank: 2

UID
109679
积分
63
冰币
101
威望
0
发表于 2012-8-22 15:52:58 | 显示全部楼层
冰冰影视音质好响亮!
回复 支持 反对

使用道具 举报

1

主题

365

帖子

63

积分

小将

Rank: 2

UID
109679
积分
63
冰币
101
威望
0
发表于 2012-8-22 15:53:22 | 显示全部楼层
冰冰手机电影下载好样的!
回复 支持 反对

使用道具 举报

0

主题

588

帖子

31

积分

小将

Rank: 2

UID
53231
积分
31
冰币
264
威望
0
发表于 2012-8-24 11:54:48 | 显示全部楼层
这个帖子不错,大家快来顶起来!
回复 支持 反对

使用道具 举报

头像被屏蔽

11

主题

27

帖子

353

积分

禁止发言

UID
450
积分
353
冰币
3920
威望
0
发表于 2012-8-25 15:55:46 | 显示全部楼层
提示: 作者被禁止或删除 内容自动屏蔽
签名被屏蔽
回复 支持 反对

使用道具 举报

0

主题

1646

帖子

85

积分

小将

Rank: 2

UID
52551
积分
85
冰币
885
威望
0
发表于 2012-8-30 11:54:28 | 显示全部楼层
辛苦了楼主
回复 支持 反对

使用道具 举报

10

主题

9942

帖子

2824

积分

巡警大队

Rank: 4

UID
27458
积分
2824
冰币
29929
威望
13

论坛巡警顶帖达人热心会员大将军捐助会员巡警大队人气王子

发表于 2012-10-13 20:17:46 | 显示全部楼层
哥不只顶帖子,更是顶寂寞
长期低价收购各类闲散小妮。型号不限,详情面谈。
回复 支持 反对

使用道具 举报

0

主题

630

帖子

294

积分

部将

Rank: 3Rank: 3

UID
27410
积分
294
冰币
3023
威望
0
发表于 2012-10-14 21:08:34 | 显示全部楼层
看到好帖不顶,五雷轰顶!
回复 支持 反对

使用道具 举报

1

主题

2304

帖子

183

积分

中将

Rank: 2

UID
132602
积分
183
冰币
1969
威望
0
发表于 2012-10-21 13:01:34 | 显示全部楼层
手机登陆aapig.cc论坛,认识更多玩机好友
回复 支持 反对

使用道具 举报

本版积分规则

手机版|小黑屋|冰冰网 ( 粤ICP备10024810号-1 )

GMT+8, 2018-7-22 16:24

Powered by www.discuz.net Discuz! X3.4

© 2001-2012 Comsenz Inc sitemap a67 s80


本站影视音乐资源来自互联网免费共享,仅供交流学习之用,版权归作者本人所有,如果侵犯了您的权益,请通知我们,邮箱地址mail@aapig.com
快速回复 返回顶部 返回列表