冰冰网

 找回密码
 开放注册,禁止乱回复
搜索
查看: 1665|回复: 6

[港台] 陈淑桦《滚滚红尘》[DVD-VOB][115网盘下载][原版MTV][KTV/双音轨]

[复制链接]
 成长值: 765

4466

主题

4732

帖子

15万

积分

信陵

Rank: 16Rank: 16Rank: 16Rank: 16

UID
1
积分
158160
冰币
476659
威望
741

制作组管理员宣传高手精帖强人蓝钻勋章大富之家晶钻勋章

发表于 2012-8-7 10:50:35 | 显示全部楼层 |阅读模式 |        |

K:\电驴目录\MTV\115\待上传\陈淑桦《滚滚红尘》冰冰高清[www.aapig.com.cn].vob
   General
      Complete name : K:\电驴目录\MTV\115\待上传\陈淑桦《滚滚红尘》冰冰高清[www.aapig.com.cn].vob
      Format : MPEG-PS
      File size : 112 MiB
      Duration : 3mn 3s
      Overall bit rate : 5 148 Kbps
   Video #224
      ID : 224 (0xE0)
      Format : MPEG Video
      Format version : Version 2
      Format profile : Main@Main
      Format settings, BVOP : Yes
      Format settings, Matrix : Custom
      Format settings, GOP : M=3, N=15
      Duration : 3mn 3s
      Bit rate mode : Variable
      Bit rate : 4 278 Kbps
      Maximum bit rate : 9 000 Kbps
      Width : 720 pixels
      Height : 480 pixels
      Display aspect ratio : 4:3
      Frame rate : 29.970 fps
      Standard : NTSC
      Color space : YUV
      Chroma subsampling : 4:2:0
      Bit depth : 8 bits
      Scan type : Interlaced
      Scan order : Top Field First
      Compression mode : Lossy
      Bits/(Pixel*Frame) : 0.413
      Stream size : 93.4 MiB (83%)
   Audio #189-128
      ID : 189 (0xBD)-128 (0x80)
      Format : AC-3
      Format/Info : Audio Coding 3
      Mode extension : CM (complete main)
      Muxing mode : DVD-Video
      Duration : 3mn 3s
      Bit rate mode : Constant
      Bit rate : 384 Kbps
      Channel(s) : 6 channels
      Channel positions : Front: L C R, Side: L R, LFE
      Sampling rate : 48.0 KHz
      Bit depth : 16 bits
      Compression mode : Lossy
      Delay relative to video : -290ms
      Stream size : 8.39 MiB (7%)
   Audio #189-129
      ID : 189 (0xBD)-129 (0x81)
      Format : AC-3
      Format/Info : Audio Coding 3
      Mode extension : CM (complete main)
      Muxing mode : DVD-Video
      Duration : 3mn 3s
      Bit rate mode : Constant
      Bit rate : 384 Kbps
      Channel(s) : 6 channels
      Channel positions : Front: L C R, Side: L R, LFE
      Sampling rate : 48.0 KHz
      Bit depth : 16 bits
      Compression mode : Lossy
      Delay relative to video : -290ms
      Stream size : 8.39 MiB (7%)




115网盘下载地址
游客,如果您要查看本帖隐藏内容请回复,   如果您想享受免回复免冰币无广告权限→→请捐助论坛

1

主题

365

帖子

63

积分

小将

Rank: 2

UID
109679
积分
63
冰币
101
威望
0
发表于 2012-8-22 15:51:16 | 显示全部楼层
冰冰电影真清晰!
回复 支持 反对

使用道具 举报

0

主题

1646

帖子

85

积分

小将

Rank: 2

UID
52551
积分
85
冰币
885
威望
0
发表于 2012-9-6 23:21:22 | 显示全部楼层
谢谢了楼主
回复 支持 反对

使用道具 举报

1

主题

2304

帖子

183

积分

中将

Rank: 2

UID
132602
积分
183
冰币
1969
威望
0
发表于 2012-10-25 11:06:28 | 显示全部楼层
树立网络文明、有修养的网民从你我作起,乱回帖者禁言封ID。
回复 支持 反对

使用道具 举报

1

主题

427

帖子

242

积分

部将

Rank: 3Rank: 3

UID
51423
积分
242
冰币
2461
威望
0
发表于 2013-12-26 09:52:52 | 显示全部楼层
看看怎么样
回复 支持 反对

使用道具 举报

0

主题

1006

帖子

85

积分

小将

Rank: 2

UID
54152
积分
85
冰币
833
威望
0
发表于 2015-11-19 01:36:17 | 显示全部楼层
谢谢分享!
回复 支持 反对

使用道具 举报

1

主题

214

帖子

47

积分

小将

Rank: 2

UID
158115
积分
47
冰币
491
威望
0
发表于 2016-9-5 12:30:21 | 显示全部楼层
老歌就是好听!可惜链接已经失效!
回复 支持 反对

使用道具 举报

本版积分规则

手机版|小黑屋|冰冰网 ( 粤ICP备10024810号-1 )

GMT+8, 2018-5-25 01:33

Powered by www.discuz.net Discuz! X3.4

© 2001-2012 Comsenz Inc sitemap a67 s80


本站影视音乐资源来自互联网免费共享,仅供交流学习之用,版权归作者本人所有,如果侵犯了您的权益,请通知我们,邮箱地址mail@aapig.com
快速回复 返回顶部 返回列表