冰冰网

 找回密码
 开放注册,禁止乱回复

只需一步,快速开始

https://www.aapig.com/mp4-683334-p1-1.html
搜索
查看: 926|回复: 4

[港台] 陈奕迅《富士山下》[DVD-VOB][115网盘下载][原版MTV]

[复制链接]
 成长值: 1045

4472

主题

4739

帖子

15万

积分

信陵

Rank: 16Rank: 16Rank: 16Rank: 16

UID
1
积分
158113
冰币
476119
威望
741

制作组管理员宣传高手精帖强人蓝钻勋章大富之家晶钻勋章

发表于 2012-8-7 10:55:07 | 显示全部楼层 |阅读模式 |        |
K:\电驴目录\MTV\115\待上传\已传\陈奕迅-富士山下冰冰高清[www.aapig.com.cn].vob
   General
      Complete name : K:\电驴目录\MTV\115\待上传\已传\陈奕迅-富士山下冰冰高清[www.aapig.com.cn].vob
      Format : MPEG-PS
      File size : 264 MiB
      Duration : 4mn 23s
      Overall bit rate : 8 402 Kbps
   Video #224
      ID : 224 (0xE0)
      Format : MPEG Video
      Format version : Version 2
      Format profile : Main@Main
      Format settings, BVOP : Yes
      Format settings, Matrix : Custom
      Format settings, GOP : M=3, N=15
      Duration : 4mn 23s
      Bit rate : 7 979 Kbps
      Maximum bit rate : 8 000 Kbps
      Width : 720 pixels
      Height : 480 pixels
      Display aspect ratio : 4:3
      Frame rate : 29.970 fps
      Standard : NTSC
      Color space : YUV
      Chroma subsampling : 4:2:0
      Bit depth : 8 bits
      Scan type : Interlaced
      Scan order : Bottom Field First
      Compression mode : Lossy
      Bits/(Pixel*Frame) : 0.770
      Stream size : 250 MiB (95%)
   Audio #189-128
      ID : 189 (0xBD)-128 (0x80)
      Format : AC-3
      Format/Info : Audio Coding 3
      Mode extension : CM (complete main)
      Muxing mode : DVD-Video
      Duration : 4mn 23s
      Bit rate mode : Constant
      Bit rate : 256 Kbps
      Channel(s) : 2 channels
      Channel positions : Front: L R
      Sampling rate : 48.0 KHz
      Bit depth : 16 bits
      Compression mode : Lossy
      Delay relative to video : -177ms
      Stream size : 8.03 MiB (3%)
[attach]61433[/attach]
购买主题 已有 2 人购买  本主题需向作者支付 30 冰币 才能浏览, 赚冰币 | 捐助会员免币购买直接查看

0

主题

1646

帖子

85

积分

小将

Rank: 2

UID
52551
积分
85
冰币
885
威望
0
发表于 2012-9-1 17:01:17 | 显示全部楼层
辛苦了楼主
回复 支持 反对

使用道具 举报

1

主题

2304

帖子

183

积分

中将

Rank: 2

UID
132602
积分
183
冰币
1969
威望
0
发表于 2012-10-26 15:59:03 | 显示全部楼层
顶,钓鱼岛是中国的!!!!!!!
回复 支持 反对

使用道具 举报

1

主题

143

帖子

16

积分

大兵

Rank: 1

UID
260252
积分
16
冰币
165
威望
0
发表于 2013-10-24 11:17:29 | 显示全部楼层
谢谢楼主分享
回复 支持 反对

使用道具 举报

0

主题

3509

帖子

1808

积分

大将

Rank: 4

UID
49456
积分
1808
冰币
19291
威望
0
发表于 2017-3-8 21:33:27 | 显示全部楼层
感谢楼主的分享。
回复 支持 反对

使用道具 举报

本版积分规则

手机版|小黑屋|冰冰网 ( 粤ICP备10024810号-1 )

GMT+8, 2018-7-20 12:39

Powered by www.discuz.net Discuz! X3.4

© 2001-2012 Comsenz Inc sitemap a67 s80


本站影视音乐资源来自互联网免费共享,仅供交流学习之用,版权归作者本人所有,如果侵犯了您的权益,请通知我们,邮箱地址mail@aapig.com
快速回复 返回顶部 返回列表