冰冰网

 找回密码
 开放注册,禁止乱回复
搜索
查看: 15195|回复: 279

[ed2k]少女时代必备MV《Genie》三星HD高清演示终极收藏版-1080【强力推荐】

  [复制链接]
 成长值: 1790

2万

主题

2万

帖子

872万

积分

参谋

高清手机影视爱好者

Rank: 8Rank: 8

UID
3
积分
8724027
冰币
276071
威望
7491

顶帖达人精帖强人君临天下大富之家捐助会员宣传高手至尊贡献荣誉勋章绿钻勋章天尊大将军制作组版主网站编辑超级斑竹蓝钻勋章

发表于 2011-6-4 09:38:31 | 显示全部楼层 |阅读模式 |        |

   Video #4113
      ID : 4113 (0x1011)
      Menu ID : 1 (0x1)
      Format : MPEG Video
      Format version : Version 2
      Format profile : Main@High
      Format settings, BVOP : Yes
      Format settings, Matrix : Default
      Format settings, GOP : M=3, N=15
      Codec ID : 2
      Duration : 4mn 8s
      Bit rate mode : Variable
      Bit rate : 35.0 Mbps
      Width : 1 920 pixels
      Height : 1 080 pixels
      Display aspect ratio : 16:9
      Frame rate : 29.970 fps
      Standard : Component
      Color space : YUV
      Chroma subsampling : 4:2:0
      Bit depth : 8 bits
      Scan type : Interlaced
      Scan order : Top Field First
      Compression mode : Lossy
      Bits/(Pixel*Frame) : 0.563
      Stream size : 1.02 GiB (95%)
   Audio #4352
      ID : 4352 (0x1100)
      Menu ID : 1 (0x1)
      Format : AC-3
      Format/Info : Audio Coding 3
      Mode extension : CM (complete main)
      Codec ID : 129
      Duration : 4mn 8s
      Bit rate mode : Constant
      Bit rate : 448 Kbps
      Channel(s) : 6 channels
      Channel positions : Front: L C R, Side: L R, LFE
      Sampling rate : 48.0 KHz
      Bit depth : 16 bits
      Compression mode : Lossy
      Delay relative to video : -67ms
      Stream size : 13.3 MiB (1%)

手机收藏必备.少女时代超级高清演示-Genie..jpg

下载地址(复制下面链接到ed2k电驴或快车迅雷等下载工具新建任务)
理论上资源长期不会失效,且不会受网盘的屏蔽。

游客,如果您要查看本帖隐藏内容请回复,   如果您想享受免回复免冰币无广告权限→→请捐助论坛
论坛每个月服务器的维护开支让管理员压力山大
有心捐助论坛的会员行动起来呀 →点击这里捐助并成为VIP
有疑问的会员请到→《会员咨询区》发帖咨询

如果你喜欢冰冰网,请→推荐AAPiG给您身边的同学好友

0

主题

79

帖子

43

积分

小将

Rank: 2

UID
52430
积分
43
冰币
454
威望
0
发表于 2011-6-4 16:42:44 | 显示全部楼层
{:soso_e100:}多谢分享

0

主题

24

帖子

-22

积分

民兵

UID
1569
积分
-22
冰币
-43
威望
-10
发表于 2011-6-5 19:46:22 | 显示全部楼层
nynuummu

评分

参与人数 1威望 -5 冰币 -35 收起 理由
郭均河 -5 -35 恶意灌水

查看全部评分

0

主题

279

帖子

257

积分

部将

Rank: 3Rank: 3

UID
51371
积分
257
冰币
1624
威望
0

捐助会员

发表于 2011-6-6 01:04:37 | 显示全部楼层
论坛不能没有像楼主这样的人才啊!我会一直支持冰冰手机影视。感谢楼主的无私分享!要想冰冰手机影视好 就靠你我他

1

主题

141

帖子

21

积分

大兵

Rank: 1

UID
51360
积分
21
冰币
211
威望
0
发表于 2011-6-6 10:27:16 | 显示全部楼层
其实我一直觉得楼主的品味不错!呵呵!冰冰手机影视太棒了!

0

主题

515

帖子

67

积分

小将

Rank: 2

UID
52508
积分
67
冰币
719
威望
0
发表于 2011-6-6 13:33:52 | 显示全部楼层
冰冰真清晰

0

主题

179

帖子

22

积分

大兵

Rank: 1

UID
48601
积分
22
冰币
231
威望
0
发表于 2011-6-6 16:40:24 | 显示全部楼层

冰冰影视音质好响亮!!我想我是一天也不能离开冰冰手机影视
sundeku 该用户已被删除
发表于 2011-6-7 08:40:43 | 显示全部楼层
提示: 作者被禁止或删除 内容自动屏蔽

10

主题

9942

帖子

2824

积分

巡警大队

Rank: 4

UID
27458
积分
2824
冰币
29929
威望
13

论坛巡警顶帖达人热心会员大将军捐助会员巡警大队人气王子

发表于 2011-6-7 23:19:46 | 显示全部楼层
感谢分享了
长期低价收购各类闲散小妮。型号不限,详情面谈。

0

主题

60

帖子

24

积分

大兵

Rank: 1

UID
42645
积分
24
冰币
185
威望
1
发表于 2011-6-11 01:25:47 | 显示全部楼层
先顶后下

本版积分规则

手机版|小黑屋|冰冰网 ( 粤ICP备10024810号-1 )

GMT+8, 2018-5-24 12:15

Powered by www.discuz.net Discuz! X3.4

© 2001-2012 Comsenz Inc sitemap a67 s80


本站影视音乐资源来自互联网免费共享,仅供交流学习之用,版权归作者本人所有,如果侵犯了您的权益,请通知我们,邮箱地址mail@aapig.com
快速回复 返回顶部 返回列表