冰冰网

 找回密码
 开放注册,禁止乱回复
搜索
查看: 27326|回复: 477

[ed2k]少女时代必备MV《Gee》LG.HD高清演示终极收藏版-1080.tp【强力推荐】

  [复制链接]
 成长值: 1780

2万

主题

2万

帖子

872万

积分

参谋

高清手机影视爱好者

Rank: 8Rank: 8

UID
3
积分
8724022
冰币
276020
威望
7491

顶帖达人精帖强人君临天下大富之家捐助会员宣传高手至尊贡献荣誉勋章绿钻勋章天尊大将军制作组版主网站编辑超级斑竹蓝钻勋章

发表于 2011-6-4 09:58:56 | 显示全部楼层 |阅读模式 |        |

   Video #17
      ID : 17 (0x11)
      Menu ID : 1 (0x1)
      Format : MPEG Video
      Format version : Version 2
      Format profile : High@High
      Format settings, BVOP : Yes
      Format settings, Matrix : Default
      Format settings, GOP : M=3, N=15
      Codec ID : 2
      Duration : 3mn 54s
      Bit rate mode : Constant
      Bit rate : 38.0 Mbps
      Width : 1 920 pixels
      Height : 1 080 pixels
      Display aspect ratio : 16:9
      Frame rate : 29.970 fps
      Color space : YUV
      Chroma subsampling : 4:2:0
      Bit depth : 8 bits
      Scan type : Interlaced
      Scan order : Top Field First
      Compression mode : Lossy
      Bits/(Pixel*Frame) : 0.611
      Stream size : 1.01 GiB (94%)
   Audio #20
      ID : 20 (0x14)
      Menu ID : 1 (0x1)
      Format : AC-3
      Format/Info : Audio Coding 3
      Mode extension : CM (complete main)
      Codec ID : 129
      Duration : 3mn 53s
      Bit rate mode : Constant
      Bit rate : 384 Kbps
      Channel(s) : 6 channels
      Channel positions : Front: L C R, Side: L R, LFE
      Sampling rate : 48.0 KHz
      Bit depth : 16 bits
      Compression mode : Lossy
      Delay relative to video : -1ms
      Stream size : 10.7 MiB (1%)


Generation-Gee.jpg

下载地址(点击或复制下面链接到ed2k电驴或快车迅雷等下载工具新建任务)
理论上资源长期不会失效,且不会受网盘的屏蔽。
游客,如果您要查看本帖隐藏内容请回复,   如果您想享受免回复免冰币无广告权限→→请捐助论坛


论坛每个月服务器的维护开支让管理员压力山大
有心捐助论坛的会员行动起来呀 →点击这里捐助并成为VIP
有疑问的会员请到→《会员咨询区》发帖咨询

如果你喜欢冰冰网,请→推荐AAPiG给您身边的同学好友

0

主题

79

帖子

43

积分

小将

Rank: 2

UID
52430
积分
43
冰币
454
威望
0
发表于 2011-6-4 11:24:26 | 显示全部楼层
很好,不错

0

主题

470

帖子

41

积分

小将

Rank: 2

UID
30313
积分
41
冰币
441
威望
0
发表于 2011-6-4 13:35:29 | 显示全部楼层
好东西收下.
yaoweihua 该用户已被删除
发表于 2011-6-4 14:56:35 | 显示全部楼层
提示: 作者被禁止或删除 内容自动屏蔽

1

主题

141

帖子

21

积分

大兵

Rank: 1

UID
51360
积分
21
冰币
211
威望
0
发表于 2011-6-4 15:31:18 | 显示全部楼层
楼主发贴辛苦了,冰冰电影真清晰!我觉得冰冰手机影视是注册对了!
lqs5530. 该用户已被删除
发表于 2011-6-5 11:41:25 | 显示全部楼层
提示: 作者被禁止或删除 内容自动屏蔽

0

主题

248

帖子

18

积分

大兵

Rank: 1

UID
36739
积分
18
冰币
165
威望
0
发表于 2011-6-5 12:08:53 | 显示全部楼层
下来看看{:soso_e132:}

0

主题

468

帖子

42

积分

小将

Rank: 2

UID
33663
积分
42
冰币
528
威望
-10
发表于 2011-6-5 14:35:10 | 显示全部楼层
顶起顶起顶起

0

主题

171

帖子

17

积分

大兵

Rank: 1

UID
34462
积分
17
冰币
178
威望
0
发表于 2011-6-5 22:56:41 | 显示全部楼层
楼主,大恩不言谢了!冰冰手机影视是最棒的!

0

主题

361

帖子

48

积分

小将

Rank: 2

UID
24568
积分
48
冰币
413
威望
0
发表于 2011-6-6 00:17:03 | 显示全部楼层
强烈支持!{:soso_e179:}

本版积分规则

手机版|小黑屋|冰冰网 ( 粤ICP备10024810号-1 )

GMT+8, 2018-5-23 20:49

Powered by www.discuz.net Discuz! X3.4

© 2001-2012 Comsenz Inc sitemap a67 s80


本站影视音乐资源来自互联网免费共享,仅供交流学习之用,版权归作者本人所有,如果侵犯了您的权益,请通知我们,邮箱地址mail@aapig.com
快速回复 返回顶部 返回列表