冰冰网

 找回密码
 开放注册,禁止乱回复
搜索
查看: 5067|回复: 106

少女时代最新MV--Dancing Queen【强烈推荐】[1080P]【强烈推荐】[百度网盘下载]

  [复制链接]
 成长值: 1810

2万

主题

2万

帖子

872万

积分

参谋

高清手机影视爱好者

Rank: 8Rank: 8

UID
3
积分
8724057
冰币
276404
威望
7491

顶帖达人精帖强人君临天下大富之家捐助会员宣传高手至尊贡献荣誉勋章绿钻勋章天尊大将军制作组版主网站编辑超级斑竹蓝钻勋章

发表于 2012-12-24 11:45:06 | 显示全部楼层 |阅读模式 |        |
www.aapig.com.cn[MV]少女時代 - Dancing Queen (naver 1080P).mp4
    Format : MPEG-4
    Format profile : Base Media
    Codec ID : isom
    File size : 318 MiB
    Duration : 4mn 23s
    Overall bit rate mode : Variable
    Overall bit rate : 10.1 Mbps
    Writing application : Lavf52.104.0
  Video #1
    ID : 1
    Format : AVC
    Format/Info : Advanced Video Codec
    Format profile : Main@L4.0
    Format settings, CABAC : Yes
    Format settings, ReFrames : 2 frames
    Codec ID : avc1
    Codec ID/Info : Advanced Video Coding
    Duration : 4mn 23s
    Bit rate : 9 999 Kbps
    Width : 1 920 pixels
    Height : 1 080 pixels
    Display aspect ratio : 16:9
    Frame rate mode : Constant
    Frame rate : 23.976 fps
    Color space : YUV
    Chroma subsampling : 4:2:0
    Bit depth : 8 bits
    Scan type : Progressive
    Bits/(Pixel*Frame) : 0.201
    Stream size : 314 MiB (99%)
    Writing library : x264 core 100
    Encoding settings : cabac=1 / ref=2 / deblock=1:0:0 / analyse=0x1:0x111 / me=hex / subme=6 / psy=1 / psy_rd=1.00:0.00 / mixed_ref=0 / me_range=16 / chroma_me=1 / trellis=0 / 8x8dct=0 / cqm=0 / deadzone=21,11 / fast_pskip=1 / chroma_qp_offset=-2 / threads=2 / sliced_threads=0 / nr=0 / decimate=1 / interlaced=0 / constrained_intra=0 / bframes=2 / b_pyramid=0 / b_adapt=0 / b_bias=0 / direct=3 / weightb=0 / open_gop=0 / weightp=0 / keyint=50 / keyint_min=25 / scenecut=40 / intra_refresh=0 / rc_lookahead=40 / rc=abr / mbtree=1 / bitrate=9999 / ratetol=1.0 / qcomp=0.60 / qpmin=6 / qpmax=51 / qpstep=4 / vbv_maxrate=20000 / vbv_bufsize=20000 / ip_ratio=1.41 / aq=1:1.00 / nal_hrd=none
  Audio #2
    ID : 2
    Format : AAC
    Format/Info : Advanced Audio Codec
    Format profile : LC
    Codec ID : 40
    Duration : 4mn 23s
    Bit rate mode : Variable
    Bit rate : 128 Kbps
    Channel(s) : 2 channels
    Channel positions : Front: L R
    Sampling rate : 44.1 KHz
    Compression mode : Lossy
    Delay relative to video : 42ms
    Stream size : 4.02 MiB (1%)

55716286201212211728462470326686654_003.jpg


百度网盘下载地址
游客,如果您要查看本帖隐藏内容请回复,   如果您想享受免回复免冰币无广告权限→→请捐助论坛
论坛每个月服务器的维护开支让管理员压力山大
有心捐助论坛的会员行动起来呀 →点击这里捐助并成为VIP
有疑问的会员请到→《会员咨询区》发帖咨询

如果你喜欢冰冰网,请→推荐AAPiG给您身边的同学好友

0

主题

681

帖子

-33

积分

平民

UID
33903
积分
-33
冰币
803
威望
-110
发表于 2012-12-24 20:02:33 | 显示全部楼层
少女时代最新MV
回复 支持 反对

使用道具 举报

1

主题

418

帖子

43

积分

小将

Rank: 2

UID
46997
积分
43
冰币
420
威望
1
发表于 2012-12-24 22:14:18 | 显示全部楼层
惊恐山谷复苏供货商刚刚好大好大好大好{:4_9k:}
回复 支持 反对

使用道具 举报

1

主题

1332

帖子

429

积分

部将

Rank: 3Rank: 3

UID
96338
积分
429
冰币
4535
威望
-8
发表于 2012-12-24 23:29:36 | 显示全部楼层
谢谢楼主的分享
回复 支持 反对

使用道具 举报

0

主题

55

帖子

6

积分

大兵

Rank: 1

UID
48180
积分
6
冰币
58
威望
0
发表于 2012-12-25 04:48:22 | 显示全部楼层
时代最新MV--Dancing Queen【强烈推荐】[1080P]【强烈推荐】[百度网盘下载] [修改]
回复 支持 反对

使用道具 举报

4

主题

463

帖子

11

积分

大兵

Rank: 1

UID
53150
积分
11
冰币
303
威望
-29
发表于 2012-12-25 06:23:19 | 显示全部楼层
感谢楼主的无私分享!
回复 支持 反对

使用道具 举报

1

主题

278

帖子

12

积分

大兵

Rank: 1

UID
116701
积分
12
冰币
80
威望
0
发表于 2012-12-25 17:16:48 | 显示全部楼层
支持一下! 很喜欢少女时代!
回复 支持 反对

使用道具 举报

1

主题

752

帖子

440

积分

部将

Rank: 3Rank: 3

UID
140350
积分
440
冰币
4660
威望
0
发表于 2012-12-25 18:02:29 | 显示全部楼层
少时的帖子不顶对不起自己啊
回复 支持 反对

使用道具 举报

6

主题

275

帖子

31

积分

小将

Rank: 2

UID
115280
积分
31
冰币
236
威望
0
发表于 2012-12-25 18:10:45 | 显示全部楼层
多谢楼主分享
回复 支持 反对

使用道具 举报

1

主题

1099

帖子

178

积分

中将

Rank: 2

UID
73935
积分
178
冰币
1779
威望
0
发表于 2012-12-25 21:02:04 | 显示全部楼层
好多的美少女
回复 支持 反对

使用道具 举报

本版积分规则

手机版|小黑屋|冰冰网 ( 粤ICP备10024810号-1 )

GMT+8, 2018-5-26 22:04

Powered by www.discuz.net Discuz! X3.4

© 2001-2012 Comsenz Inc sitemap a67 s80


本站影视音乐资源来自互联网免费共享,仅供交流学习之用,版权归作者本人所有,如果侵犯了您的权益,请通知我们,邮箱地址mail@aapig.com
快速回复 返回顶部 返回列表