冰冰网

 找回密码
 开放注册,禁止乱回复
搜索
查看: 7303|回复: 85

[综艺] 【115网盘】性感空姐从天而降,乳此动人,谁可匹敌【你们懂得,嘿嘿】

  [复制链接]

123

主题

213

帖子

325

积分

发布组

Rank: 4

UID
52281
积分
325
冰币
1040
威望
93

发布组HD高清

发表于 2011-12-6 13:29:04 | 显示全部楼层 |阅读模式 |        |
本帖最后由 旅途 于 2011-12-6 18:00 编辑

General
Complete name                    : G:\空姐.avi
Format                           : AVI
Format/Info                      : Audio Video Interleave
File size                        : 227 MiB
Duration                         : 2mn 47s
Overall bit rate                 : 11.3 Mbps
Writing application              : GDBBS 1.6.1
Writing library                  : [= GdbbsCf junk data!
Video
ID                               : 0
Format                           : AVC
Format/Info                      : Advanced Video Codec
Format profile                   : High@L4.0
Format settings, CABAC           : No
Format settings, ReFrames        : 1 frame
Codec ID                         : h264
Duration                         : 2mn 47s
Bit rate                         : 10 000 Kbps
Width                            : 1 920 pixels
Height                           : 1 080 pixels
Display aspect ratio             : 16:9
Frame rate                       : 30.000 fps
Color space                      : YUV
Chroma subsampling               : 4:2:0
Bit depth                        : 8 bits
Scan type                        : Progressive
Bits/(Pixel*Frame)               : 0.161
Stream size                      : 198 MiB (88%)
Writing library                  : x264 core 104
Encoding settings                : cabac=0 / ref=1 / deblock=1:0:0 / analyse=0x3:0x113 / me=dia / subme=6 / psy=1 / psy_rd=1.00:0.00 / mixed_ref=0 / me_range=16 / chroma_me=1 / trellis=0 / 8x8dct=1 / cqm=0 / deadzone=21,11 / fast_pskip=1 / chroma_qp_offset=-2 / threads=6 / sliced_threads=0 / nr=0 / decimate=1 / interlaced=0 / constrained_intra=0 / bframes=0 / weightp=2 / keyint=250 / keyint_min=25 / scenecut=40 / intra_refresh=0 / rc_lookahead=40 / rc=abr / mbtree=1 / bitrate=10000 / ratetol=1.0 / qcomp=0.60 / qpmin=10 / qpmax=51 / qpstep=4 / ip_ratio=1.40 / aq=1:1.00

Audio
ID                               : 1
Format                           : PCM
Format settings, Endianness      : Little
Format settings, Sign            : Signed
Codec ID                         : 1
Codec ID/Hint                    : Microsoft
Duration                         : 2mn 47s
Bit rate mode                    : Constant
Bit rate                         : 1 411.2 Kbps
Channel(s)                       : 2 channels
Sampling rate                    : 44.1 KHz
Bit depth                        : 16 bits
Stream size                      : 28.1 MiB (12%)
Interleave, duration             : 502 ms (15.06 video frames)
Interleave, preload duration     : 500 ms
空姐-缩略图-2011-12-06 17-55-12.jpg
游客,如果您要查看本帖隐藏内容请回复,   如果您想享受免回复免冰币无广告权限→→请捐助论坛

95

主题

1424

帖子

1189

积分

版主

Rank: 7Rank: 7Rank: 7

UID
144
积分
1189
冰币
5687
威望
83

发布组HD高清

发表于 2011-12-6 14:06:42 | 显示全部楼层
感谢楼主的无私分享!要想冰冰手机影视好 就靠你我他

0

主题

1379

帖子

133

积分

中将

Rank: 2

UID
32204
积分
133
冰币
1507
威望
-20
发表于 2011-12-6 15:24:57 | 显示全部楼层
支持高清,感谢楼主。。。

0

主题

316

帖子

27

积分

大兵

Rank: 1

UID
51996
积分
27
冰币
470
威望
-21
发表于 2011-12-6 17:45:20 | 显示全部楼层
这个不错。我喜欢

0

主题

570

帖子

15

积分

大兵

Rank: 1

UID
52626
积分
15
冰币
40
威望
0
发表于 2011-12-6 17:49:57 | 显示全部楼层
感谢楼主分享

5

主题

888

帖子

267

积分

部将

Rank: 3Rank: 3

UID
42388
积分
267
冰币
2671
威望
5
发表于 2011-12-6 17:54:55 | 显示全部楼层
很好很强大非常喜欢

0

主题

261

帖子

29

积分

大兵

Rank: 1

UID
35306
积分
29
冰币
283
威望
0
发表于 2011-12-6 18:05:18 | 显示全部楼层
真的假的

1

主题

1633

帖子

123

积分

中将

Rank: 2

UID
24495
积分
123
冰币
1079
威望
0
发表于 2011-12-6 18:27:10 | 显示全部楼层
谢谢分享
走NB的路,让SB去说!

0

主题

630

帖子

294

积分

部将

Rank: 3Rank: 3

UID
27410
积分
294
冰币
3023
威望
0
发表于 2011-12-6 21:17:19 | 显示全部楼层
楼主,我太崇拜你了!我想我是一天也不能离开冰冰高清手机影视

55

主题

1070

帖子

624

积分

大将

Rank: 4

UID
6306
积分
624
冰币
6367
威望
1

制作组

发表于 2011-12-6 21:53:56 | 显示全部楼层
支持一个,感谢楼主分享

本版积分规则

手机版|小黑屋|冰冰网 ( 粤ICP备10024810号-1 )

GMT+8, 2018-5-25 05:15

Powered by www.discuz.net Discuz! X3.4

© 2001-2012 Comsenz Inc sitemap a67 s80


本站影视音乐资源来自互联网免费共享,仅供交流学习之用,版权归作者本人所有,如果侵犯了您的权益,请通知我们,邮箱地址mail@aapig.com
快速回复 返回顶部 返回列表