冰冰网

 找回密码
 开放注册,禁止乱回复
搜索
查看: 5625|回复: 66

[1080P/I] 韩国火爆美女天团AOA新歌性感MV《Confused》中文字幕版[1080P][百度网盘]

  [复制链接]
 成长值: 1800

2万

主题

2万

帖子

872万

积分

参谋

高清手机影视爱好者

Rank: 8Rank: 8

UID
3
积分
8724034
冰币
276151
威望
7491

顶帖达人精帖强人君临天下大富之家捐助会员宣传高手至尊贡献荣誉勋章绿钻勋章天尊大将军制作组版主网站编辑超级斑竹蓝钻勋章

发表于 2013-10-18 08:31:10 | 显示全部楼层 |阅读模式 |        |

www.aapig.com.cn[Full HD][MV] AOA-Confused.mkv
    Format : Matroska
    Format version : Version 2
    File size : 300 MiB
    Duration : 4mn 4s
    Overall bit rate : 10.3 Mbps
    Encoded date : UTC 2013-10-12 23:59:30
    Writing application : mkvmerge v5.8.0 ('No Sleep / Pillow') built on Sep  2 2012 15:37:04
    Writing library : libebml v1.2.3 + libmatroska v1.3.0
  Video #1
    ID : 1
    Format : AVC
    Format/Info : Advanced Video Codec
    Format profile : High@L4.1
    Format settings, CABAC : Yes
    Format settings, ReFrames : 4 frames
    Codec ID : V_MPEG4/ISO/AVC
    Duration : 4mn 4s
    Bit rate : 10 000 Kbps
    Width : 1 920 pixels
    Height : 1 080 pixels
    Display aspect ratio : 16:9
    Frame rate mode : Constant
    Frame rate : 60.000 fps
    Original frame rate : 59.940 fps
    Color space : YUV
    Chroma subsampling : 4:2:0
    Bit depth : 8 bits
    Scan type : Progressive
    Bits/(Pixel*Frame) : 0.080
    Stream size : 284 MiB (95%)
    Writing library : x264 core 129 r2230 1cffe9f
    Encoding settings : cabac=1 / ref=3 / deblock=1:1:1 / analyse=0x3:0x113 / me=hex / subme=7 / psy=1 / psy_rd=1.00:0.00 / mixed_ref=1 / me_range=16 / chroma_me=1 / trellis=1 / 8x8dct=1 / cqm=0 / deadzone=21,11 / fast_pskip=1 / chroma_qp_offset=-2 / threads=6 / lookahead_threads=1 / sliced_threads=0 / nr=0 / decimate=1 / interlaced=0 / bluray_compat=0 / constrained_intra=0 / bframes=3 / b_pyramid=2 / b_adapt=1 / b_bias=0 / direct=1 / weightb=1 / open_gop=0 / weightp=2 / keyint=599 / keyint_min=59 / scenecut=40 / intra_refresh=0 / rc_lookahead=40 / rc=abr / mbtree=1 / bitrate=10000 / ratetol=1.0 / qcomp=0.60 / qpmin=10 / qpmax=51 / qpstep=4 / vbv_maxrate=50000 / vbv_bufsize=50000 / nal_hrd=none / ip_ratio=1.40 / aq=1:1.00
    Default : Yes
    Forced : No
  Audio #2
    ID : 2
    Format : MPEG Audio
    Format version : Version 1
    Format profile : Layer 3
    Mode : Joint stereo
    Mode extension : MS Stereo
    Codec ID : A_MPEG/L3
    Codec ID/Hint : MP3
    Duration : 4mn 4s
    Bit rate mode : Constant
    Bit rate : 320 Kbps
    Channel count : 2 channels
    Sampling rate : 44.1 KHz
    Compression mode : Lossy
    Stream size : 9.32 MiB (3%)
    Writing library : LAME3.99r
    Encoding settings : -m j -V 4 -q 2 -lowpass 20.5
    Default : Yes
    Forced : No

1129566b7z0cr17tsp31td.jpg.thumb.jpg


百度网盘下载地址
游客,如果您要查看本帖隐藏内容请回复,   如果您想享受免回复免冰币无广告权限→→请捐助论坛
论坛每个月服务器的维护开支让管理员压力山大
有心捐助论坛的会员行动起来呀 →点击这里捐助并成为VIP
有疑问的会员请到→《会员咨询区》发帖咨询

如果你喜欢冰冰网,请→推荐AAPiG给您身边的同学好友

1

主题

3547

帖子

415

积分

部将

Rank: 3Rank: 3

UID
51558
积分
415
冰币
4349
威望
-1
发表于 2013-10-19 12:26:23 | 显示全部楼层
谢谢楼主
回复 支持 反对

使用道具 举报

1

主题

415

帖子

342

积分

部将

Rank: 3Rank: 3

UID
186220
积分
342
冰币
3644
威望
0
发表于 2013-10-21 00:31:41 | 显示全部楼层
很不错,做人要厚道,回复是本分。
回复 支持 反对

使用道具 举报

1

主题

288

帖子

43

积分

小将

Rank: 2

UID
232932
积分
43
冰币
405
威望
0
发表于 2013-10-21 13:10:58 | 显示全部楼层
谢谢分享
回复 支持 反对

使用道具 举报

头像被屏蔽

4

主题

231

帖子

20

积分

禁止发言

UID
30962
积分
20
冰币
208
威望
0

捐助会员

发表于 2013-10-22 14:57:17 | 显示全部楼层
提示: 作者被禁止或删除 内容自动屏蔽
回复 支持 反对

使用道具 举报

1

主题

571

帖子

140

积分

中将

Rank: 2

UID
54508
积分
140
冰币
371
威望
-1
发表于 2013-10-26 23:15:04 来自手机 | 显示全部楼层
谢谢谢谢谢
回复 支持 反对

使用道具 举报

1

主题

559

帖子

75

积分

小将

Rank: 2

UID
120452
积分
75
冰币
968
威望
-22
发表于 2013-10-27 19:41:08 | 显示全部楼层
韩国火爆美女天团AOA新歌性感MV
回复 支持 反对

使用道具 举报

0

主题

295

帖子

40

积分

小将

Rank: 2

UID
53018
积分
40
冰币
415
威望
0
发表于 2013-10-30 21:22:28 | 显示全部楼层
感谢楼主分享,高风亮节义薄云天!
回复 支持 反对

使用道具 举报

1

主题

526

帖子

276

积分

部将

Rank: 3Rank: 3

UID
266380
积分
276
冰币
2894
威望
0
发表于 2013-11-1 20:30:25 | 显示全部楼层
这个值得欣赏啊,美腿云集啊
回复 支持 反对

使用道具 举报

0

主题

163

帖子

22

积分

大兵

Rank: 1

UID
47637
积分
22
冰币
228
威望
0
发表于 2013-11-2 22:43:53 | 显示全部楼层
哈哈
  一如的支持
回复 支持 反对

使用道具 举报

本版积分规则

手机版|小黑屋|冰冰网 ( 粤ICP备10024810号-1 )

GMT+8, 2018-5-25 11:32

Powered by www.discuz.net Discuz! X3.4

© 2001-2012 Comsenz Inc sitemap a67 s80


本站影视音乐资源来自互联网免费共享,仅供交流学习之用,版权归作者本人所有,如果侵犯了您的权益,请通知我们,邮箱地址mail@aapig.com
快速回复 返回顶部 返回列表