冰冰网

 找回密码
 开放注册,禁止乱回复
搜索
查看: 972|回复: 22

[1080P/I] 经典重现:少女时代舞台处子秀《重逢的世界》(Into_The_New_World)[百度网盘]

[复制链接]
 成长值: 1800

2万

主题

2万

帖子

872万

积分

参谋

高清手机影视爱好者

Rank: 8Rank: 8

UID
3
积分
8724036
冰币
276167
威望
7491

顶帖达人精帖强人君临天下大富之家捐助会员宣传高手至尊贡献荣誉勋章绿钻勋章天尊大将军制作组版主网站编辑超级斑竹蓝钻勋章

发表于 2013-11-24 09:25:48 | 显示全部楼层 |阅读模式 |        |
www.aapig.com.cnInto_The_New_World_070805.SBS.Popular_Song.tp
    Format : MPEG-TS
    File size : 507 MiB
    Duration : 3mn 54s
    Overall bit rate : 18.1 Mbps
  Video #17
    ID : 17 (0x11)
    Menu ID : 1 (0x1)
    Format : MPEG Video
    Format version : Version 2
    Format profile : Main@High
    Format settings, BVOP : Yes
    Format settings, Matrix : Default
    Format settings, GOP : M=3, N=15
    Codec ID : 2
    Duration : 3mn 54s
    Bit rate : 16.9 Mbps
    Maximum bit rate : 17.4 Mbps
    Width : 1 920 pixels
    Height : 1 088 pixels
    Display aspect ratio : 16:9
    Frame rate : 29.970 fps
    Standard : Component
    Color space : YUV
    Chroma subsampling : 4:2:0
    Bit depth : 8 bits
    Scan type : Interlaced
    Scan order : Top Field First
    Compression mode : Lossy
    Bits/(Pixel*Frame) : 0.269
    Stream size : 471 MiB (93%)
    Color primaries : BT.709
    Transfer characteristics : BT.709
    Matrix coefficients : BT.709
    Name : ko:video
  Audio #20
    ID : 20 (0x14)
    Menu ID : 1 (0x1)
    Format : AC-3
    Format/Info : Audio Coding 3
    Mode extension : CM (complete main)
    Format settings, Endianness : Big
    Codec ID : 129
    Duration : 3mn 54s
    Bit rate mode : Constant
    Bit rate : 384 Kbps
    Channel(s) : 2 channels
    Channel positions : Front: L R
    Sampling rate : 48.0 KHz
    Bit depth : 16 bits
    Compression mode : Lossy
    Delay relative to video : -377ms
    Stream size : 10.7 MiB (2%)
    Name : ko:audio

少女少女时代-舞台处子秀 in Tokyo东京写真时,《少女少女时代in Tokyo》东京写真时听.jpg


百度网盘下载地址
游客,如果您要查看本帖隐藏内容请回复,   如果您想享受免回复免冰币无广告权限→→请捐助论坛
论坛每个月服务器的维护开支让管理员压力山大
有心捐助论坛的会员行动起来呀 →点击这里捐助并成为VIP
有疑问的会员请到→《会员咨询区》发帖咨询

如果你喜欢冰冰网,请→推荐AAPiG给您身边的同学好友

1

主题

3547

帖子

415

积分

部将

Rank: 3Rank: 3

UID
51558
积分
415
冰币
4349
威望
-1
发表于 2013-11-24 12:24:04 | 显示全部楼层
谢谢楼主
回复 支持 反对

使用道具 举报

1

主题

833

帖子

571

积分

大将

Rank: 4

UID
148121
积分
571
冰币
6113
威望
0
发表于 2013-11-25 00:45:24 | 显示全部楼层
冰冰视频超清晰!
回复 支持 反对

使用道具 举报

1

主题

126

帖子

2

积分

小兵

Rank: 1

UID
207131
积分
2
冰币
0
威望
0
发表于 2013-11-25 11:16:14 | 显示全部楼层
不管东西咋样 还是先谢谢了
回复 支持 反对

使用道具 举报

1

主题

1203

帖子

117

积分

中将

Rank: 2

UID
24386
积分
117
冰币
1280
威望
-5
发表于 2013-11-26 21:21:16 | 显示全部楼层
这个要的啊
回复 支持 反对

使用道具 举报

1

主题

675

帖子

161

积分

中将

Rank: 2

UID
108703
积分
161
冰币
1670
威望
0
发表于 2013-11-27 12:55:22 | 显示全部楼层
支持AAPiG好资源,我要介绍我的同学朋友来AAPiG
回复 支持 反对

使用道具 举报

1

主题

323

帖子

194

积分

中将

Rank: 2

UID
149839
积分
194
冰币
2047
威望
0
发表于 2013-12-19 22:35:44 | 显示全部楼层
论坛好资源,大家多介绍同学朋友来AAPiG
回复 支持 反对

使用道具 举报

头像被屏蔽

4

主题

231

帖子

20

积分

禁止发言

UID
30962
积分
20
冰币
208
威望
0

捐助会员

发表于 2013-12-28 15:37:52 | 显示全部楼层
提示: 作者被禁止或删除 内容自动屏蔽
回复 支持 反对

使用道具 举报

0

主题

184

帖子

29

积分

大兵

Rank: 1

UID
42325
积分
29
冰币
293
威望
0
发表于 2014-1-2 20:23:21 | 显示全部楼层
支持作者,支持冰冰高清,好帖就是要顶出来的!
回复 支持 反对

使用道具 举报

0

主题

112

帖子

11

积分

大兵

Rank: 1

UID
32028
积分
11
冰币
128
威望
-2
发表于 2014-1-8 02:44:51 来自手机 | 显示全部楼层
ijjuuuuuuuu
回复 支持 反对

使用道具 举报

本版积分规则

手机版|小黑屋|冰冰网 ( 粤ICP备10024810号-1 )

GMT+8, 2018-5-25 12:58

Powered by www.discuz.net Discuz! X3.4

© 2001-2012 Comsenz Inc sitemap a67 s80


本站影视音乐资源来自互联网免费共享,仅供交流学习之用,版权归作者本人所有,如果侵犯了您的权益,请通知我们,邮箱地址mail@aapig.com
快速回复 返回顶部 返回列表