冰冰网

 找回密码
 开放注册,禁止乱回复
搜索
查看: 1456|回复: 28

[1080P/I] 泰妍(少女时代)+JOO(拥有爆发性演唱实力的歌手)合唱《如果》080314.KBS.音乐银行[百度网盘]

[复制链接]
 成长值: 1780

2万

主题

2万

帖子

872万

积分

参谋

高清手机影视爱好者

Rank: 8Rank: 8

UID
3
积分
8724022
冰币
276013
威望
7491

顶帖达人精帖强人君临天下大富之家捐助会员宣传高手至尊贡献荣誉勋章绿钻勋章天尊大将军制作组版主网站编辑超级斑竹蓝钻勋章

发表于 2013-11-27 08:49:08 | 显示全部楼层 |阅读模式 |        |


www.aapig.com.cn如果.泰妍(With JOO).KBS.音乐银行_1080I_AC3_406.tp
    Format : MPEG-TS
    File size : 406 MiB
    Duration : 2mn 55s
    Start time : UTC 2008-03-14 09:28:36
    End time : UTC 2008-03-14 09:31:31
    Overall bit rate : 19.4 Mbps
  Video #33
    ID : 33 (0x21)
    Menu ID : 1 (0x1)
    Format : MPEG Video
    Format version : Version 2
    Format profile : Main@High
    Format settings, BVOP : Yes
    Format settings, Matrix : Default
    Format settings, GOP : M=3, N=15
    Codec ID : 2
    Duration : 2mn 55s
    Bit rate : 17.9 Mbps
    Maximum bit rate : 17.2 Mbps
    Width : 1 920 pixels
    Height : 1 088 pixels
    Display aspect ratio : 16:9
    Frame rate : 29.970 fps
    Standard : Component
    Color space : YUV
    Chroma subsampling : 4:2:0
    Bit depth : 8 bits
    Scan type : Interlaced
    Scan order : Top Field First
    Compression mode : Lossy
    Bits/(Pixel*Frame) : 0.286
    Stream size : 374 MiB (92%)
    Language : Korean
    Color primaries : BT.709
    Transfer characteristics : BT.709
    Matrix coefficients : BT.709
    Name : ko:Video
  Audio #36
    ID : 36 (0x24)
    Menu ID : 1 (0x1)
    Format : AC-3
    Format/Info : Audio Coding 3
    Mode extension : CM (complete main)
    Format settings, Endianness : Big
    Codec ID : 129
    Duration : 2mn 55s
    Bit rate mode : Constant
    Bit rate : 384 Kbps
    Channel(s) : 2 channels
    Channel positions : Front: L R
    Sampling rate : 48.0 KHz
    Bit depth : 16 bits
    Compression mode : Lossy
    Delay relative to video : -286ms
    Stream size : 8.03 MiB (2%)
    Language : Korean
    Name : ko:Audio
  Audio #52
    ID : 52 (0x34)
    Menu ID : 1 (0x1)
    Format : AC-3
    Format/Info : Audio Coding 3
    Mode extension : CM (complete main)
    Format settings, Endianness : Big
    Codec ID : 129
    Duration : 2mn 55s
    Bit rate mode : Constant
    Bit rate : 128 Kbps
    Channel(s) : 2 channels
    Channel positions : Front: L R
    Sampling rate : 48.0 KHz
    Bit depth : 16 bits
    Compression mode : Lossy
    Delay relative to video : -217ms
    Stream size : 2.68 MiB (1%)
    Language : English
    Name : en:Audio
  Menu #32
    ID : 32 (0x20)
    Menu ID : 1 (0x1)
    Duration : 2mn 55s
    List : 33 (0x21) (MPEG Video, Korean) / 36 (0x24) (AC-3, Korean) / 52 (0x34) (AC-3, English) / 1281 (0x501) () / 4352 (0x1100) ()
    Language : Korean / Korean / English
    Service name : kbs digital 2
    Service channel number : 7-1
    Service provider : KBS Digital TV
    Service type : Digital television
    UTC 2008-03-14 08:50:41 : ko:HD 뮤직뱅크 / ko:뮤직뱅크 /  /  / 01:00:43 /
    UTC 2008-03-14 09:51:24 : ko:HD 못말리는 결혼 /  /  /  / 00:33:51 /
    UTC 2008-03-14 10:25:15 : ko:인간극장 /  /  /  / 00:29:01 /
    UTC 2008-03-14 10:54:16 : ko:KBS 8 뉴스타임 /  /  /  / 00:50:42 /
    UTC 2008-03-14 11:44:58 : ko:좋은나라 운동본부 / ko:좋은나라 운동본부 /  /  / 01:04:59 /
    UTC 2008-03-14 12:49:57 : ko:VJ특공대 /  /  /  / 01:10:28 /
    UTC 2008-03-14 14:00:25 : ko:HD 부부클리닉 사랑과 전쟁 / ko:조강지첩 /  /  / 01:10:28 /
    UTC 2008-03-14 15:10:53 : ko:HD 윤도현의 러브레터 /  /  /  / 01:29:41 /
    UTC 2008-03-14 16:38:52 : ko:정파시간 /  /  /  / 04:21:08 /
    UTC 2008-03-14 21:00:00 : ko:생방송 세상의 아침 / ko:생방송 세상의 아침 /  /  / 01:00:00 /
    UTC 2008-03-14 22:00:00 : ko:생방송 세상의 아침 /  /  /  / 01:00:00 /
    UTC 2008-03-14 23:00:00 : ko:생방송 세상의 아침 /  /  /  / 01:00:00 /
    UTC 2008-03-15 00:00:00 : ko:HD 착한여자 백일홍 / ko:아침드라마  착한여자 백일홍 /  /  / 00:30:00 /
    UTC 2008-03-15 00:30:00 : ko:HD 도전, 주부가요스타 /  /  /  / 00:55:00 /
    UTC 2008-03-15 01:25:00 : ko:무한지대 큐 스페셜 /  /  /  / 00:55:00 /
    UTC 2008-03-15 02:20:00 : ko:영화가 좋다 / ko:영화가 좋다 /  /  / 01:00:00 /
    UTC 2008-03-15 03:20:00 : ko:VJ클럽 /  /  /  / 00:40:00 /
    UTC 2008-03-15 04:00:00 : ko:로빈후드 /  /  /  / 00:50:00 /
    UTC 2008-03-15 04:50:00 : ko:HD 개그 콘서트 /  /  /  / 01:10:00 /
    UTC 2008-03-15 06:00:00 : ko:해피 투게더 / ko:해피 투게더 /  /  / 01:10:00 /
    UTC 2008-03-15 07:10:00 : ko:VJ특공대 /  /  /  / 01:10:00 /
    UTC 2008-03-15 08:20:00 : ko:HD 스타 골든벨 /  /  /  / 01:20:00 /





百度网盘下载地址
游客,如果您要查看本帖隐藏内容请回复,   如果您想享受免回复免冰币无广告权限→→请捐助论坛
论坛每个月服务器的维护开支让管理员压力山大
有心捐助论坛的会员行动起来呀 →点击这里捐助并成为VIP
有疑问的会员请到→《会员咨询区》发帖咨询

如果你喜欢冰冰网,请→推荐AAPiG给您身边的同学好友

1

主题

833

帖子

571

积分

大将

Rank: 4

UID
148121
积分
571
冰币
6113
威望
0
发表于 2013-11-27 19:48:53 | 显示全部楼层
哥不只顶帖子,更是顶寂寞
回复 支持 反对

使用道具 举报

1

主题

115

帖子

-20

积分

民兵

UID
145548
积分
-20
冰币
-237
威望
0
发表于 2013-11-28 21:35:34 来自手机 | 显示全部楼层
谢谢分享
回复 支持 反对

使用道具 举报

1

主题

335

帖子

31

积分

小将

Rank: 2

UID
121327
积分
31
冰币
306
威望
0
发表于 2013-11-28 23:12:22 | 显示全部楼层
好可爱啊
回复 支持 反对

使用道具 举报

0

主题

1245

帖子

521

积分

大将

Rank: 4

UID
53092
积分
521
冰币
5599
威望
-6
发表于 2013-12-13 16:20:21 | 显示全部楼层
谢谢分享
回复 支持 反对

使用道具 举报

14

主题

418

帖子

210

积分

部将

Rank: 3Rank: 3

UID
49700
积分
210
冰币
2119
威望
10
发表于 2013-12-16 11:53:42 | 显示全部楼层
谢谢分享
回复 支持 反对

使用道具 举报

1

主题

102

帖子

-18

积分

民兵

UID
150788
积分
-18
冰币
-225
威望
0
发表于 2013-12-17 19:04:39 | 显示全部楼层
好看不啊
回复 支持 反对

使用道具 举报

0

主题

392

帖子

37

积分

小将

Rank: 2

UID
34235
积分
37
冰币
393
威望
0
发表于 2013-12-20 00:57:43 | 显示全部楼层
fgugdfhhdfuy
回复 支持 反对

使用道具 举报

1

主题

278

帖子

71

积分

小将

Rank: 2

UID
104302
积分
71
冰币
294
威望
0
发表于 2013-12-23 18:36:50 | 显示全部楼层
迅雷看看
回复 支持 反对

使用道具 举报

0

主题

572

帖子

646

积分

大将

Rank: 4

UID
18766
积分
646
冰币
6929
威望
0
发表于 2014-1-12 18:57:32 | 显示全部楼层
好帖就要顶,谢谢分享!
回复 支持 反对

使用道具 举报

本版积分规则

手机版|小黑屋|冰冰网 ( 粤ICP备10024810号-1 )

GMT+8, 2018-5-23 19:03

Powered by www.discuz.net Discuz! X3.4

© 2001-2012 Comsenz Inc sitemap a67 s80


本站影视音乐资源来自互联网免费共享,仅供交流学习之用,版权归作者本人所有,如果侵犯了您的权益,请通知我们,邮箱地址mail@aapig.com
快速回复 返回顶部 返回列表