冰冰网

 找回密码
 开放注册,禁止乱回复
搜索
查看: 2097|回复: 57

[1080P/I] T-ARA最新现场版《Do You Know Me》131215 SBS[百度网盘]

  [复制链接]
 成长值: 1760

2万

主题

2万

帖子

872万

积分

参谋

高清手机影视爱好者

Rank: 8Rank: 8

UID
3
积分
8723978
冰币
275530
威望
7491

顶帖达人精帖强人君临天下大富之家捐助会员宣传高手至尊贡献荣誉勋章绿钻勋章天尊大将军制作组版主网站编辑超级斑竹蓝钻勋章

发表于 2013-12-19 15:37:28 | 显示全部楼层 |阅读模式 |        |

www.aapig.com.cnT-ARA-Do You Know Me 131215 SBS.ts
    Format : MPEG-TS
    File size : 429 MiB
    Duration : 3mn 17s
    Overall bit rate mode : Variable
    Overall bit rate : 18.2 Mbps
  Video #17
    ID : 17 (0x11)
    Menu ID : 1 (0x1)
    Format : MPEG Video
    Format version : Version 2
    Format profile : Main@High
    Format settings, BVOP : Yes
    Format settings, Matrix : Default
    Codec ID : 2
    Duration : 3mn 16s
    Bit rate mode : Variable
    Bit rate : 16.9 Mbps
    Maximum bit rate : 17.7 Mbps
    Width : 1 920 pixels
    Height : 1 080 pixels
    Display aspect ratio : 16:9
    Active Format Description : Full frame 16:9 image
    Frame rate : 29.970 fps
    Color space : YUV
    Chroma subsampling : 4:2:0
    Bit depth : 8 bits
    Scan type : Interlaced
    Scan order : Top Field First
    Compression mode : Lossy
    Bits/(Pixel*Frame) : 0.273
    Stream size : 397 MiB (93%)
  Audio #20
    ID : 20 (0x14)
    Menu ID : 1 (0x1)
    Format : AC-3
    Format/Info : Audio Coding 3
    Mode extension : CM (complete main)
    Format settings, Endianness : Big
    Codec ID : 129
    Duration : 3mn 17s
    Bit rate mode : Constant
    Bit rate : 384 Kbps
    Channel(s) : 2 channels
    Channel positions : Front: L R
    Sampling rate : 48.0 KHz
    Bit depth : 16 bits
    Compression mode : Lossy
    Delay relative to video : -174ms
    Stream size : 9.02 MiB (2%)







百度网盘下载地址
游客,如果您要查看本帖隐藏内容请回复,   如果您想享受免回复免冰币无广告权限→→请捐助论坛
论坛每个月服务器的维护开支让管理员压力山大
有心捐助论坛的会员行动起来呀 →点击这里捐助并成为VIP
有疑问的会员请到→《会员咨询区》发帖咨询

如果你喜欢冰冰网,请→推荐AAPiG给您身边的同学好友

1

主题

392

帖子

12

积分

大兵

Rank: 1

UID
83284
积分
12
冰币
87
威望
0
发表于 2013-12-19 22:57:27 | 显示全部楼层
谢谢分享
回复 支持 反对

使用道具 举报

1

主题

3547

帖子

415

积分

部将

Rank: 3Rank: 3

UID
51558
积分
415
冰币
4349
威望
-1
发表于 2013-12-20 12:21:49 | 显示全部楼层
谢谢楼主
回复 支持 反对

使用道具 举报

1

主题

833

帖子

571

积分

大将

Rank: 4

UID
148121
积分
571
冰币
6113
威望
0
发表于 2013-12-20 21:45:55 | 显示全部楼层
感谢楼主分享哦~~~
回复 支持 反对

使用道具 举报

0

主题

451

帖子

51

积分

小将

Rank: 2

UID
27354
积分
51
冰币
535
威望
0
发表于 2013-12-21 13:10:53 | 显示全部楼层
谢谢分享。。。
回复 支持 反对

使用道具 举报

0

主题

886

帖子

61

积分

小将

Rank: 2

UID
53510
积分
61
冰币
552
威望
0
发表于 2013-12-21 19:01:34 | 显示全部楼层
冰冰视频超清晰!
回复 支持 反对

使用道具 举报

1

主题

1141

帖子

64

积分

小将

Rank: 2

UID
157951
积分
64
冰币
490
威望
-2
发表于 2013-12-22 11:14:06 | 显示全部楼层
感谢楼主分享哦~~~
回复 支持 反对

使用道具 举报

1

主题

1141

帖子

64

积分

小将

Rank: 2

UID
157951
积分
64
冰币
490
威望
-2
发表于 2013-12-22 12:36:12 | 显示全部楼层
感谢楼主分享哦~~~
回复 支持 反对

使用道具 举报

0

主题

831

帖子

-3

积分

民兵

UID
23626
积分
-3
冰币
-38
威望
-10
发表于 2013-12-23 19:16:52 | 显示全部楼层
dxfghgjhlkijpouyivgjkhkjbhkjhk
回复 支持 反对

使用道具 举报

0

主题

317

帖子

30

积分

小将

Rank: 2

UID
23599
积分
30
冰币
315
威望
0
发表于 2013-12-24 20:54:31 | 显示全部楼层
谢谢分享
回复 支持 反对

使用道具 举报

本版积分规则

手机版|小黑屋|冰冰网 ( 粤ICP备10024810号-1 )

GMT+8, 2018-5-21 22:51

Powered by www.discuz.net Discuz! X3.4

© 2001-2012 Comsenz Inc sitemap a67 s80


本站影视音乐资源来自互联网免费共享,仅供交流学习之用,版权归作者本人所有,如果侵犯了您的权益,请通知我们,邮箱地址mail@aapig.com
快速回复 返回顶部 返回列表