冰冰网

 找回密码
 开放注册,禁止乱回复

只需一步,快速开始

https://www.aapig.com/mp4-683334-p1-1.html
搜索
查看: 1077|回复: 3

[港台] 张学友《爱得比你深》[DVD-MPG][百度网盘下载][原版MTV][KTV/双音轨]

[复制链接]
 成长值: 2360

2万

主题

2万

帖子

872万

积分

参谋

高清手机影视爱好者

Rank: 8Rank: 8

UID
3
积分
8724892
冰币
285652
威望
7491

顶帖达人精帖强人君临天下大富之家捐助会员宣传高手至尊贡献荣誉勋章绿钻勋章天尊大将军制作组版主网站编辑超级斑竹蓝钻勋章

发表于 2014-2-7 13:48:26 | 显示全部楼层 |阅读模式 |        |


    File size : 189 MiB
    Duration : 4mn 52s
    Overall bit rate mode : Variable
    Overall bit rate : 5 425 Kbps
  Video #224
    ID : 224 (0xE0)
    Format : MPEG Video
    Format version : Version 2
    Format profile : Main@Main
    Format settings, BVOP : Yes
    Format settings, Matrix : Custom
    Format settings, GOP : M=2, N=16
    Duration : 4mn 52s
    Bit rate mode : Variable
    Bit rate : 4 549 Kbps
    Maximum bit rate : 9 780 Kbps
    Width : 720 pixels
    Height : 480 pixels
    Display aspect ratio : 4:3
    Frame rate : 29.970 fps
    Standard : NTSC
    Color space : YUV
    Chroma subsampling : 4:2:0
    Bit depth : 8 bits
    Scan type : Interlaced
    Scan order : Top Field First
    Compression mode : Lossy
    Bits/(Pixel*Frame) : 0.439
    Time code of first frame : 01:21:08:16
    Time code source : Group of pictures header
    Stream size : 159 MiB (84%)
  Audio #192
    ID : 192 (0xC0)
    Format : MPEG Audio
    Format version : Version 1
    Format profile : Layer 2
    Duration : 4mn 52s
    Bit rate mode : Constant
    Bit rate : 384 Kbps
    Channel count : 2 channels
    Sampling rate : 48.0 KHz
    Compression mode : Lossy
    Stream size : 13.4 MiB (7%)
  Audio #193
    ID : 193 (0xC1)
    Format : MPEG Audio
    Format version : Version 1
    Format profile : Layer 2
    Duration : 4mn 52s
    Bit rate mode : Constant
    Bit rate : 384 Kbps
    Channel count : 2 channels
    Sampling rate : 48.0 KHz
    Compression mode : Lossy
    Stream size : 13.4 MiB (7%)



百度网盘下载地址
游客,如果您要查看本帖隐藏内容请回复,   如果您想享受免回复免冰币无广告权限→→请捐助论坛

论坛每个月服务器的维护开支让管理员压力山大
有心捐助论坛的会员行动起来呀 →点击这里捐助并成为VIP
有疑问的会员请到→《会员咨询区》发帖咨询

如果你喜欢冰冰网,请→推荐AAPiG给您身边的同学好友

1

主题

110

帖子

64

积分

小将

Rank: 2

UID
332429
积分
64
冰币
685
威望
0
发表于 2014-11-18 18:16:58 | 显示全部楼层
這個好,收下了
回复 支持 反对

使用道具 举报

9

主题

2142

帖子

2703

积分

元帅

Rank: 6Rank: 6

UID
140004
积分
2703
冰币
29094
威望
0
发表于 2015-10-20 21:04:53 | 显示全部楼层
听听歌神的这首歌是粤语还是国语。
回复 支持 反对

使用道具 举报

1

主题

161

帖子

141

积分

中将

Rank: 2

UID
422624
积分
141
冰币
1503
威望
0
发表于 2017-7-25 19:34:51 | 显示全部楼层
谢谢分享,看看这个版本
回复 支持 反对

使用道具 举报

本版积分规则

手机版|小黑屋|冰冰网 ( 粤ICP备10024810号-1 )

GMT+8, 2018-7-20 09:10

Powered by www.discuz.net Discuz! X3.4

© 2001-2012 Comsenz Inc sitemap a67 s80


本站影视音乐资源来自互联网免费共享,仅供交流学习之用,版权归作者本人所有,如果侵犯了您的权益,请通知我们,邮箱地址mail@aapig.com
快速回复 返回顶部 返回列表