冰冰网

 找回密码
 开放注册,禁止乱回复
https://www.aapig.com/mp4-683334-p1-1.html
搜索
查看: 789|回复: 2

[港台] 高胜美《蝶儿蝶儿满天飞》[DVD-vob][百度网盘][KTV/双音轨]

[复制链接]
 成长值: 2320

2万

主题

2万

帖子

872万

积分

参谋

高清手机影视爱好者

Rank: 8Rank: 8

UID
3
积分
8724722
冰币
283769
威望
7491

顶帖达人精帖强人君临天下大富之家捐助会员宣传高手至尊贡献荣誉勋章绿钻勋章天尊大将军制作组版主网站编辑超级斑竹蓝钻勋章

发表于 2014-3-10 17:16:39 | 显示全部楼层 |阅读模式 |        |

www.aapig.com.cn高胜美《蝶儿蝶儿满天飞》.vob
    Format : MPEG-PS
    File size : 172 MiB
    Duration : 3mn 48s
    Overall bit rate : 6 318 Kbps
    Writing library : encoded by TMPGEnc (ver. 2.521.58.169)
  Video #224
    ID : 224 (0xE0)
    Format : MPEG Video
    Format version : Version 2
    Format profile : Main@Main
    Format settings, BVOP : Yes
    Format settings, Matrix : Custom
    Format settings, GOP : M=3, N=16
    Duration : 3mn 48s
    Bit rate : 5 000 Kbps
    Width : 720 pixels
    Height : 480 pixels
    Display aspect ratio : 4:3
    Frame rate : 29.970 fps
    Standard : NTSC
    Color space : YUV
    Chroma subsampling : 4:2:0
    Bit depth : 8 bits
    Scan type : Interlaced
    Scan order : Bottom Field First
    Compression mode : Lossy
    Bits/(Pixel*Frame) : 0.483
    Time code of first frame : 00:00:00:00
    Time code source : Group of pictures header
    Stream size : 136 MiB (79%)
    Writing library : TMPGEnc 2.521.58.169
    Color primaries : BT.601 PAL
    Transfer characteristics : BT.470 System B, BT.470 System G
    Matrix coefficients : FCC 73.682
  Audio #189-128
    ID : 189 (0xBD)-128 (0x80)
    Format : AC-3
    Format/Info : Audio Coding 3
    Mode extension : CM (complete main)
    Format settings, Endianness : Big
    Muxing mode : DVD-Video
    Duration : 3mn 48s
    Bit rate mode : Constant
    Bit rate : 224 Kbps
    Channel count : 6 channels
    Channel positions : Front: L C R, Side: L R, LFE
    Sampling rate : 48.0 KHz
    Bit depth : 16 bits
    Compression mode : Lossy
    Stream size : 6.09 MiB (4%)
  Audio #189-129
    ID : 189 (0xBD)-129 (0x81)
    Format : AC-3
    Format/Info : Audio Coding 3
    Mode extension : CM (complete main)
    Format settings, Endianness : Big
    Muxing mode : DVD-Video
    Duration : 3mn 48s
    Bit rate mode : Constant
    Bit rate : 224 Kbps
    Channel count : 6 channels
    Channel positions : Front: L C R, Side: L R, LFE
    Sampling rate : 48.0 KHz
    Bit depth : 16 bits
    Compression mode : Lossy
    Stream size : 6.09 MiB (4%)
  Audio #189-138
    ID : 189 (0xBD)-138 (0x8A)
    Format : DTS
    Format/Info : Digital Theater Systems
    Mode : 16
    Format settings, Endianness : Big
    Muxing mode : DVD-Video
    Duration : 3mn 48s
    Bit rate mode : Constant
    Bit rate : 755 Kbps
    Channel count : 6 channels
    Channel positions : Front: L C R, Side: L R, LFE
    Sampling rate : 48.0 KHz
    Bit depth : 24 bits
    Compression mode : Lossy
    Stream size : 20.5 MiB (12%)
  Menu



高胜美《蝶儿蝶儿满天飞》.vob.jpg

百度网盘下载地址
游客,如果您要查看本帖隐藏内容请回复,   如果您想享受免回复免冰币无广告权限→→请捐助论坛
论坛每个月服务器的维护开支让管理员压力山大
有心捐助论坛的会员行动起来呀 →点击这里捐助并成为VIP
有疑问的会员请到→《会员咨询区》发帖咨询

如果你喜欢冰冰网,请→推荐AAPiG给您身边的同学好友

0

主题

1006

帖子

85

积分

小将

Rank: 2

UID
54152
积分
85
冰币
833
威望
0
发表于 2015-11-16 23:56:59 | 显示全部楼层
支持一下,感谢感谢
回复 支持 反对

使用道具 举报

0

主题

80

帖子

-21

积分

民兵

UID
510018
积分
-21
冰币
-247
威望
0
发表于 2017-11-14 01:19:40 | 显示全部楼层
感谢版主的分享。
回复 支持 反对

使用道具 举报

本版积分规则

手机版|小黑屋|冰冰网 ( 粤ICP备10024810号-1 )

GMT+8, 2018-7-16 09:07

Powered by www.discuz.net Discuz! X3.4

© 2001-2012 Comsenz Inc sitemap a67 s80


本站影视音乐资源来自互联网免费共享,仅供交流学习之用,版权归作者本人所有,如果侵犯了您的权益,请通知我们,邮箱地址mail@aapig.com
快速回复 返回顶部 返回列表