冰冰网

 找回密码
 开放注册,禁止乱回复

只需一步,快速开始

https://www.aapig.com/mp4-683334-p1-1.html
搜索
查看: 1068|回复: 4

[港台] 郑智化《星星点灯》[DVD-vob][百度网盘][KTV/双音轨]

[复制链接]
 成长值: 2360

2万

主题

2万

帖子

872万

积分

参谋

高清手机影视爱好者

Rank: 8Rank: 8

UID
3
积分
8724897
冰币
285712
威望
7491

顶帖达人精帖强人君临天下大富之家捐助会员宣传高手至尊贡献荣誉勋章绿钻勋章天尊大将军制作组版主网站编辑超级斑竹蓝钻勋章

发表于 2014-3-10 21:23:10 | 显示全部楼层 |阅读模式 |        |

www.aapig.com.cn郑智化《星星点灯》.vob
    Format : MPEG-PS
    File size : 224 MiB
    Duration : 4mn 56s
    Overall bit rate mode : Variable
    Overall bit rate : 6 328 Kbps
    Writing library : encoded by TMPGEnc 4.0 XPress Version. 4.4.2.238
  Video #224
    ID : 224 (0xE0)
    Format : MPEG Video
    Format version : Version 2
    Format profile : Main@Main
    Format settings, BVOP : Yes
    Format settings, Matrix : Custom
    Format settings, GOP : M=3, N=16
    Duration : 4mn 56s
    Bit rate mode : Variable
    Bit rate : 5 000 Kbps
    Maximum bit rate : 5 500 Kbps
    Width : 720 pixels
    Height : 480 pixels
    Display aspect ratio : 4:3
    Frame rate : 29.970 fps
    Standard : NTSC
    Color space : YUV
    Chroma subsampling : 4:2:0
    Bit depth : 8 bits
    Scan type : Interlaced
    Scan order : Top Field First
    Compression mode : Lossy
    Bits/(Pixel*Frame) : 0.483
    Time code of first frame : 00:00:00:00
    Time code source : Group of pictures header
    Stream size : 177 MiB (79%)
    Writing library : TMPGEnc XPress 4.4.2.238
    Color primaries : BT.601 NTSC
    Transfer characteristics : BT.601
    Matrix coefficients : BT.601
  Audio #189-128
    ID : 189 (0xBD)-128 (0x80)
    Format : AC-3
    Format/Info : Audio Coding 3
    Mode extension : CM (complete main)
    Format settings, Endianness : Big
    Muxing mode : DVD-Video
    Duration : 4mn 56s
    Bit rate mode : Constant
    Bit rate : 224 Kbps
    Channel count : 6 channels
    Channel positions : Front: L C R, Side: L R, LFE
    Sampling rate : 48.0 KHz
    Bit depth : 16 bits
    Compression mode : Lossy
    Stream size : 7.91 MiB (4%)
  Audio #189-129
    ID : 189 (0xBD)-129 (0x81)
    Format : AC-3
    Format/Info : Audio Coding 3
    Mode extension : CM (complete main)
    Format settings, Endianness : Big
    Muxing mode : DVD-Video
    Duration : 4mn 56s
    Bit rate mode : Constant
    Bit rate : 224 Kbps
    Channel count : 6 channels
    Channel positions : Front: L C R, Side: L R, LFE
    Sampling rate : 48.0 KHz
    Bit depth : 16 bits
    Compression mode : Lossy
    Stream size : 7.91 MiB (4%)
  Audio #189-138
    ID : 189 (0xBD)-138 (0x8A)
    Format : DTS
    Format/Info : Digital Theater Systems
    Mode : 16
    Format settings, Endianness : Big
    Muxing mode : DVD-Video
    Duration : 4mn 56s
    Bit rate mode : Constant
    Bit rate : 755 Kbps
    Channel count : 6 channels
    Channel positions : Front: L C R, Side: L R, LFE
    Sampling rate : 48.0 KHz
    Bit depth : 24 bits
    Compression mode : Lossy
    Stream size : 26.6 MiB (12%)
  Menu




百度网盘下载地址
游客,如果您要查看本帖隐藏内容请回复,   如果您想享受免回复免冰币无广告权限→→请捐助论坛
论坛每个月服务器的维护开支让管理员压力山大
有心捐助论坛的会员行动起来呀 →点击这里捐助并成为VIP
有疑问的会员请到→《会员咨询区》发帖咨询

如果你喜欢冰冰网,请→推荐AAPiG给您身边的同学好友

1

主题

2202

帖子

3133

积分

元帅

Rank: 6Rank: 6

UID
14055
积分
3133
冰币
33729
威望
1
发表于 2015-4-18 22:54:40 | 显示全部楼层
谢谢!另外一个下不了,这个看看怎样。
回复 支持 反对

使用道具 举报

1

主题

218

帖子

-14

积分

民兵

UID
185343
积分
-14
冰币
-170
威望
0
发表于 2015-12-9 15:09:52 | 显示全部楼层
快乐一万年
回复 支持 反对

使用道具 举报

1

主题

70

帖子

21

积分

大兵

Rank: 1

UID
290953
积分
21
冰币
211
威望
0
发表于 2016-1-29 21:45:26 | 显示全部楼层
如果是高清的就好了。看着图片是还清楚,就看看吧`
回复 支持 反对

使用道具 举报

本版积分规则

手机版|小黑屋|冰冰网 ( 粤ICP备10024810号-1 )

GMT+8, 2018-7-20 18:24

Powered by www.discuz.net Discuz! X3.4

© 2001-2012 Comsenz Inc sitemap a67 s80


本站影视音乐资源来自互联网免费共享,仅供交流学习之用,版权归作者本人所有,如果侵犯了您的权益,请通知我们,邮箱地址mail@aapig.com
快速回复 返回顶部 返回列表