冰冰网

 找回密码
 开放注册,禁止乱回复
搜索
查看: 610|回复: 2

[港台] 孙燕姿《飘着》[DVD-vob][百度网盘]

[复制链接]
 成长值: 1820

2万

主题

2万

帖子

872万

积分

参谋

高清手机影视爱好者

Rank: 8Rank: 8

UID
3
积分
8724063
冰币
276475
威望
7491

顶帖达人精帖强人君临天下大富之家捐助会员宣传高手至尊贡献荣誉勋章绿钻勋章天尊大将军制作组版主网站编辑超级斑竹蓝钻勋章

发表于 2014-3-10 21:33:48 | 显示全部楼层 |阅读模式 |        |

www.aapig.com.cn孙燕姿-飘着.vob
    Format : MPEG-PS
    File size : 216 MiB
    Duration : 4mn 19s
    Overall bit rate mode : Variable
    Overall bit rate : 6 989 Kbps
  Video #224
    ID : 224 (0xE0)
    Format : MPEG Video
    Format version : Version 2
    Format profile : Main@Main
    Format settings, BVOP : Yes
    Format settings, Matrix : Custom
    Format settings, GOP : M=3, N=15
    Duration : 4mn 19s
    Bit rate mode : Variable
    Bit rate : 6 658 Kbps
    Maximum bit rate : 8 264 Kbps
    Width : 720 pixels
    Height : 480 pixels
    Display aspect ratio : 4:3
    Frame rate : 29.970 fps
    Standard : NTSC
    Color space : YUV
    Chroma subsampling : 4:2:0
    Bit depth : 8 bits
    Scan type : Interlaced
    Scan order : Top Field First
    Compression mode : Lossy
    Bits/(Pixel*Frame) : 0.643
    Time code of first frame : 01:06:03;00
    Time code source : Group of pictures header
    Stream size : 206 MiB (95%)
  Audio #189-128
    ID : 189 (0xBD)-128 (0x80)
    Format : AC-3
    Format/Info : Audio Coding 3
    Mode extension : CM (complete main)
    Format settings, Endianness : Big
    Muxing mode : DVD-Video
    Duration : 4mn 19s
    Bit rate mode : Constant
    Bit rate : 192 Kbps
    Channel count : 2 channels
    Channel positions : Front: L R
    Sampling rate : 48.0 KHz
    Bit depth : 16 bits
    Compression mode : Lossy
    Delay relative to video : -105ms
    Stream size : 5.94 MiB (3%)
  Menu

孙燕姿-飘着.vob.jpg



百度网盘下载地址
游客,如果您要查看本帖隐藏内容请回复,   如果您想享受免回复免冰币无广告权限→→请捐助论坛
论坛每个月服务器的维护开支让管理员压力山大
有心捐助论坛的会员行动起来呀 →点击这里捐助并成为VIP
有疑问的会员请到→《会员咨询区》发帖咨询

如果你喜欢冰冰网,请→推荐AAPiG给您身边的同学好友
头像被屏蔽

3

主题

1902

帖子

206

积分

禁止发言

UID
328226
积分
206
冰币
3047
威望
-81
发表于 2014-12-6 12:24:05 | 显示全部楼层
提示: 作者被禁止或删除 内容自动屏蔽
回复 支持 反对

使用道具 举报

1

主题

17

帖子

-21

积分

民兵

UID
351915
积分
-21
冰币
-231
威望
0
发表于 2016-12-4 19:03:56 | 显示全部楼层
百度网盘下载地址
回复 支持 反对

使用道具 举报

本版积分规则

手机版|小黑屋|冰冰网 ( 粤ICP备10024810号-1 )

GMT+8, 2018-5-27 21:50

Powered by www.discuz.net Discuz! X3.4

© 2001-2012 Comsenz Inc sitemap a67 s80


本站影视音乐资源来自互联网免费共享,仅供交流学习之用,版权归作者本人所有,如果侵犯了您的权益,请通知我们,邮箱地址mail@aapig.com
快速回复 返回顶部 返回列表