冰冰网

 找回密码
 开放注册,禁止乱回复

只需一步,快速开始

https://www.aapig.com/mp4-683334-p1-1.html
搜索
查看: 7613|回复: 130

[短片] 长虹高清4K演示片-花海.3840x2160[100M码率版本/3.29G][百度网盘]

  [复制链接]
 成长值: 2370

2万

主题

2万

帖子

872万

积分

参谋

高清手机影视爱好者

Rank: 8Rank: 8

UID
3
积分
8724915
冰币
285907
威望
7491

顶帖达人精帖强人君临天下大富之家捐助会员宣传高手至尊贡献荣誉勋章绿钻勋章天尊大将军制作组版主网站编辑超级斑竹蓝钻勋章

发表于 2014-5-7 15:32:30 | 显示全部楼层 |阅读模式 |        |

www.aapig.com.cn花海【100M码率版本】[AAPiG].mp4
    Format : MPEG-4
    Format profile : JVT
    Codec ID : avc1
    File size : 3.29 GiB
    Duration : 4mn 40s
    Overall bit rate mode : Variable
    Overall bit rate : 101 Mbps
    Encoded date : UTC 2013-11-02 20:47:13
    Tagged date : UTC 2013-11-02 20:47:13
  Video #1
    ID : 1
    Format : AVC
    Format/Info : Advanced Video Codec
    Format profile : High@L5.1
    Format settings, CABAC : Yes
    Format settings, ReFrames : 2 frames
    Format settings, GOP : N=1
    Codec ID : avc1
    Codec ID/Info : Advanced Video Coding
    Duration : 4mn 40s
    Bit rate mode : Variable
    Bit rate : 100 Mbps
    Maximum bit rate : 102 Mbps
    Width : 3 840 pixels
    Height : 2 160 pixels
    Display aspect ratio : 16:9
    Frame rate mode : Constant
    Frame rate : 29.970 fps
    Color space : YUV
    Chroma subsampling : 4:2:0
    Bit depth : 8 bits
    Scan type : Progressive
    Bits/(Pixel*Frame) : 0.403
    Stream size : 3.27 GiB (100%)
    Language : English
    Encoded date : UTC 2013-11-02 20:47:13
    Tagged date : UTC 2013-11-02 20:47:13
  Audio #2
    ID : 2
    Format : AAC
    Format/Info : Advanced Audio Codec
    Format profile : LC
    Codec ID : 40
    Duration : 4mn 40s
    Source duration : 4mn 41s
    Bit rate mode : Constant
    Bit rate : 448 Kbps
    Channel count : 2 channels
    Channel positions : Front: L R
    Sampling rate : 48.0 KHz
    Compression mode : Lossy
    Delay relative to video : 33ms
    Stream size : 15.0 MiB (0%)
    Source stream size : 15.0 MiB (0%)
    Language : English
    Encoded date : UTC 2013-11-02 20:47:13
    Tagged date : UTC 2013-11-02 20:47:13


花海【100M码率版本】[AAPiG].mp4.jpg


360下载地址
游客,如果您要查看本帖隐藏内容请回复,   如果您想享受免回复免冰币无广告权限→→请捐助论坛

百度网盘下载地址
游客,如果您要查看本帖隐藏内容请回复,   如果您想享受免回复免冰币无广告权限→→请捐助论坛
论坛每个月服务器的维护开支让管理员压力山大
有心捐助论坛的会员行动起来呀 →点击这里捐助并成为VIP
有疑问的会员请到→《会员咨询区》发帖咨询

如果你喜欢冰冰网,请→推荐AAPiG给您身边的同学好友

1

主题

138

帖子

-20

积分

民兵

UID
173577
积分
-20
冰币
-235
威望
0
发表于 2014-5-7 21:16:21 | 显示全部楼层
啊啊飒飒是的是的大声道
回复 支持 反对

使用道具 举报

0

主题

1970

帖子

975

积分

大将

Rank: 4

UID
24104
积分
975
冰币
10264
威望
-2
发表于 2014-5-11 14:27:36 | 显示全部楼层
感谢分享啊
回复 支持 反对

使用道具 举报

1

主题

364

帖子

238

积分

部将

Rank: 3Rank: 3

UID
302821
积分
238
冰币
2548
威望
0
发表于 2014-5-13 01:06:54 | 显示全部楼层
好漂亮啊
回复 支持 反对

使用道具 举报

1

主题

344

帖子

33

积分

小将

Rank: 2

UID
210292
积分
33
冰币
336
威望
-4
发表于 2014-5-15 02:45:30 | 显示全部楼层
长虹高清4K演示片-花海.
回复 支持 反对

使用道具 举报

1

主题

169

帖子

3

积分

小兵

Rank: 1

UID
262383
积分
3
冰币
-5
威望
0
发表于 2014-5-16 11:54:08 | 显示全部楼层
感谢分享。
回复 支持 反对

使用道具 举报

1

主题

7

帖子

-32

积分

平民

UID
307389
积分
-32
冰币
-358
威望
0
发表于 2014-5-19 11:12:19 | 显示全部楼层
色调稍微有一些暗
回复 支持 反对

使用道具 举报

1

主题

8

帖子

-32

积分

平民

UID
308325
积分
-32
冰币
-356
威望
0
发表于 2014-5-25 00:58:40 | 显示全部楼层
这个百度的行不行哦,上面的都下不了
回复 支持 反对

使用道具 举报

1

主题

22

帖子

-31

积分

平民

UID
308289
积分
-31
冰币
-350
威望
0
发表于 2014-5-25 08:27:39 | 显示全部楼层
0M码率版本/3.29G][百度网盘] [修改]
高级模式
BColorImageLinkQuoteCodeSmilies

参与/回复主题       
→进入冰冰智能手机网设为首页繁體中文如何提升您的会员积分切换到宽版切换风格
冰冰高清手机电影下载

unplug_wang |QQ绑定 |设置 |消息 |提醒(1) |进行中的任务|退出
摇摇乐积分: -44 |用户组: 平民
快捷导航
AAPiG新人蓝光1080PiPad安卓签到宣传摇乐在线功能兑换VIP
       
搜索
搜索       
冰冰高清手机电影下载»AAPiG›4K区›4K视频下载›长虹高清4K演示片-花海.3840x2160[100M码率版本/3.29G][ ...
分享到: QQ空间 新浪微博 腾讯微博 人人网 网易微博 0
  
返回列表发新帖回复
查看: 90|回复: 6
打印 上一主题 下一主题 [短片] 长虹高清4K演示片-花海.3840x2160[100M码率版本/3.29G][百度网盘] [复制链接]
冰龙

1万
主题       
89
听众       
36万
积分
管理员
高清手机影视爱好者
Rank: 10Rank: 10Rank: 10
TA的每日心情
        慵懒
2014-3-31 08:30
签到天数: 4 天
连续签到: 1 天
[LV.2]偶尔看看I
成长值: 480
蒙面人
UID3冰币114279 积分366172威望7065 贡献17756 点人气9073 ℃主题14540帖子16491精华653影币339253 注册时间2010-3-27
白银勋章 至尊贡献荣誉勋章 超级斑竹 网站编辑 版主 制作组 顶帖达人 精帖强人 君临天下 宣传高手 天尊 大将军 绿钻勋章
收听TA 发消息
回复 支持 反对

使用道具 举报

1

主题

10

帖子

-32

积分

平民

UID
152112
积分
-32
冰币
-359
威望
0
发表于 2014-6-1 16:39:36 | 显示全部楼层
我最喜欢的好片啊。
回复 支持 反对

使用道具 举报

本版积分规则

手机版|小黑屋|冰冰网 ( 粤ICP备10024810号-1 )

GMT+8, 2018-7-21 23:42

Powered by www.discuz.net Discuz! X3.4

© 2001-2012 Comsenz Inc sitemap a67 s80


本站影视音乐资源来自互联网免费共享,仅供交流学习之用,版权归作者本人所有,如果侵犯了您的权益,请通知我们,邮箱地址mail@aapig.com
快速回复 返回顶部 返回列表