冰冰网

 找回密码
 开放注册,禁止乱回复
搜索
查看: 4892|回复: 137

[1080P/I] 好听的印度高清MV-Sadka Kiya《I Hate Luv Storys》[1080P][百度网盘]

  [复制链接]
 成长值: 1820

2万

主题

2万

帖子

872万

积分

参谋

高清手机影视爱好者

Rank: 8Rank: 8

UID
3
积分
8724063
冰币
276471
威望
7491

顶帖达人精帖强人君临天下大富之家捐助会员宣传高手至尊贡献荣誉勋章绿钻勋章天尊大将军制作组版主网站编辑超级斑竹蓝钻勋章

发表于 2014-8-12 16:57:02 | 显示全部楼层 |阅读模式 |        |

www.aapig.com.cn莎迪卡Sadka - 印度.mkv
    Format : Matroska
    Format version : Version 2
    File size : 403 MiB
    Duration : 4mn 34s
    Overall bit rate : 12.3 Mbps
    Encoded date : UTC 2010-09-30 13:41:19
    Writing application : mkvmerge v4.3.0 ('Escape from the Island') built on Sep  5 2010 10:30:51
    Writing library : libebml v1.0.0 + libmatroska v1.0.0
  Video #1
    ID : 1
    Format : AVC
    Format/Info : Advanced Video Codec
    Format profile : High@L4.1
    Format settings, CABAC : Yes
    Format settings, ReFrames : 5 frames
    Muxing mode : Header stripping
    Codec ID : V_MPEG4/ISO/AVC
    Duration : 4mn 34s
    Bit rate : 10.6 Mbps
    Width : 1 920 pixels
    Height : 816 pixels
    Display aspect ratio : 2.35:1
    Frame rate mode : Constant
    Frame rate : 24.000 fps
    Color space : YUV
    Chroma subsampling : 4:2:0
    Bit depth : 8 bits
    Scan type : Progressive
    Bits/(Pixel*Frame) : 0.281
    Stream size : 345 MiB (86%)
    Title : DDR KaMaL
    Language : English
    Default : Yes
    Forced : No
  Audio #2
    ID : 2
    Format : DTS
    Format/Info : Digital Theater Systems
    Mode : 16
    Format settings, Endianness : Big
    Muxing mode : Header stripping
    Codec ID : A_DTS
    Duration : 4mn 34s
    Bit rate mode : Constant
    Bit rate : 1 509 Kbps
    Channel count : 6 channels
    Channel positions : Front: L C R, Side: L R, LFE
    Sampling rate : 48.0 KHz
    Bit depth : 24 bits
    Compression mode : Lossy
    Delay relative to video : 10ms
    Stream size : 49.4 MiB (12%)
    Title : DDR KaMaL
    Language : Hindi
    Default : Yes
    Forced : No
  Text #3
    ID : 3
    Format : UTF-8
    Codec ID : S_TEXT/UTF8
    Codec ID/Info : UTF-8 Plain Text
    Title : DDR KaMaL
    Language : English
    Default : Yes
    Forced : No
  Text #4
    ID : 4
    Format : VobSub
    Muxing mode : zlib
    Codec ID : S_VOBSUB
    Codec ID/Info : The same subtitle format used on DVDs
    Title : DDR KaMaL
    Language : Arabic
    Default : No
    Forced : No
  Menu
    00:00:00.000 : en:01:32:27.000

莎迪卡Sadka - 印度.jpg


百度网盘下载地址
游客,如果您要查看本帖隐藏内容请回复,   如果您想享受免回复免冰币无广告权限→→请捐助论坛
论坛每个月服务器的维护开支让管理员压力山大
有心捐助论坛的会员行动起来呀 →点击这里捐助并成为VIP
有疑问的会员请到→《会员咨询区》发帖咨询

如果你喜欢冰冰网,请→推荐AAPiG给您身边的同学好友

1

主题

3547

帖子

415

积分

部将

Rank: 3Rank: 3

UID
51558
积分
415
冰币
4349
威望
-1
发表于 2014-8-13 12:34:07 | 显示全部楼层
谢谢楼主
回复 支持 反对

使用道具 举报

1

主题

1403

帖子

139

积分

中将

Rank: 2

UID
301456
积分
139
冰币
1417
威望
0
发表于 2014-8-13 14:48:40 | 显示全部楼层
不错的高清片!
回复 支持 反对

使用道具 举报

1

主题

466

帖子

731

积分

大将

Rank: 4

UID
272384
积分
731
冰币
7936
威望
-7
发表于 2014-8-14 09:01:59 | 显示全部楼层
好听的印度高清MV
回复 支持 反对

使用道具 举报

1

主题

620

帖子

219

积分

部将

Rank: 3Rank: 3

UID
162294
积分
219
冰币
2334
威望
0
发表于 2014-8-14 21:27:01 | 显示全部楼层
阿三的歌舞片还是蛮不错滴!
回复 支持 反对

使用道具 举报

1

主题

296

帖子

-9

积分

民兵

UID
299609
积分
-9
冰币
-138
威望
0
发表于 2014-8-15 23:31:09 | 显示全部楼层
一首歌还是合集?
回复 支持 反对

使用道具 举报

1

主题

296

帖子

-9

积分

民兵

UID
299609
积分
-9
冰币
-138
威望
0
发表于 2014-8-15 23:33:36 | 显示全部楼层
一首歌还是合集?
回复 支持 反对

使用道具 举报

1

主题

142

帖子

53

积分

小将

Rank: 2

UID
186532
积分
53
冰币
551
威望
0
发表于 2014-8-16 10:49:47 | 显示全部楼层
谢谢楼主分享!!!
回复 支持 反对

使用道具 举报

1

主题

103

帖子

-18

积分

民兵

UID
216984
积分
-18
冰币
-266
威望
0
发表于 2014-8-16 19:35:31 | 显示全部楼层
谢谢楼主
回复 支持 反对

使用道具 举报

1

主题

1858

帖子

1810

积分

大将

Rank: 4

UID
110899
积分
1810
冰币
20269
威望
-80
发表于 2014-8-18 06:05:43 | 显示全部楼层
阿三的歌有的真好听。谢谢分享。
回复 支持 反对

使用道具 举报

本版积分规则

手机版|小黑屋|冰冰网 ( 粤ICP备10024810号-1 )

GMT+8, 2018-5-27 17:38

Powered by www.discuz.net Discuz! X3.4

© 2001-2012 Comsenz Inc sitemap a67 s80


本站影视音乐资源来自互联网免费共享,仅供交流学习之用,版权归作者本人所有,如果侵犯了您的权益,请通知我们,邮箱地址mail@aapig.com
快速回复 返回顶部 返回列表