冰冰网

 找回密码
 开放注册,禁止乱回复
搜索
查看: 14245|回复: 56

米娜(Mina)收藏版《接电话》☆1080【超火辣身材性感热舞】【强烈推荐】[ed2k][115]

  [复制链接]
 成长值: 1810

2万

主题

2万

帖子

872万

积分

参谋

高清手机影视爱好者

Rank: 8Rank: 8

UID
3
积分
8724053
冰币
276357
威望
7491

顶帖达人精帖强人君临天下大富之家捐助会员宣传高手至尊贡献荣誉勋章绿钻勋章天尊大将军制作组版主网站编辑超级斑竹蓝钻勋章

发表于 2012-3-13 18:31:07 | 显示全部楼层 |阅读模式 |        |

米娜(Mina)《接电话》_SBS021103_1080i_ts_AC3_431M.tp

Format : MPEG-TS
      File size : 432 MiB
      Duration : 3mn 6s
      Start time : UTC 2002-11-03 07:28:54
      End time : UTC 2002-11-03 07:32:00
      Overall bit rate : 19.4 Mbps
   Video #3713
      ID : 3713 (0xE81)
      Menu ID : 1 (0x1)
      Format : MPEG Video
      Format version : Version 2
      Format profile : Main@High
      Format settings, BVOP : Yes
      Format settings, Matrix : Default
      Format settings, GOP : M=3, N=15
      Codec ID : 2
      Duration : 3mn 6s
      Bit rate : 18.0 Mbps
      Maximum bit rate : 17.1 Mbps
      Width : 1 920 pixels
      Height : 1 088 pixels
      Display aspect ratio : 16:9
      Frame rate : 29.970 fps
      Standard : Component
      Color space : YUV
      Chroma subsampling : 4:2:0
      Bit depth : 8 bits
      Scan type : Interlaced
      Scan order : Top Field First
      Compression mode : Lossy
      Bits/(Pixel*Frame) : 0.288
      Stream size : 401 MiB (93%)
      Language : Korean
   Audio #3716
      ID : 3716 (0xE84)
      Menu ID : 1 (0x1)
      Format : AC-3
      Format/Info : Audio Coding 3
      Mode extension : CM (complete main)
      Codec ID : 129
      Duration : 3mn 6s
      Bit rate mode : Constant
      Bit rate : 384 Kbps
      Channel(s) : 2 channels
      Channel positions : Front: L R
      Sampling rate : 48.0 KHz
      Bit depth : 16 bits
      Compression mode : Lossy
      Delay relative to video : -394ms
      Stream size : 8.55 MiB (2%)
      Language : Korean


发布网站:http://www.aapig.cn
米娜(Mina)《接电话》_SBS021103_1080i_ts_AC3_431M.jpg


115网盘下载地址
游客,本帖隐藏的内容需捐助会员或积分高于 40 才可浏览,您当前积分为 0, →支持加入捐助

快速提升积分途径
1.每天登陆签到
2.支持推广冰冰
3.认真看帖回帖(需要相关版块发帖权限)
4.分享发布资源(需要相关版块发帖权限)
5.原创精华资源(需要相关版块发帖权限)
6.在线充值升级
7.加入论坛VIP

评分

参与人数 1人气 +1 收起 理由
SAMSUNG + 1 很给力!

查看全部评分

论坛每个月服务器的维护开支让管理员压力山大
有心捐助论坛的会员行动起来呀 →点击这里捐助并成为VIP
有疑问的会员请到→《会员咨询区》发帖咨询

如果你喜欢冰冰网,请→推荐AAPiG给您身边的同学好友

1

主题

1万

帖子

2679

积分

元帅

Rank: 6Rank: 6

UID
23328
积分
2679
冰币
29150
威望
-1

顶帖达人

发表于 2012-3-13 22:49:13 | 显示全部楼层
不错,不错
回复 支持 反对

使用道具 举报

1

主题

175

帖子

22

积分

大兵

Rank: 1

UID
50108
积分
22
冰币
243
威望
-2
发表于 2012-3-16 14:25:10 | 显示全部楼层
感觉很好啊。不错
回复 支持 反对

使用道具 举报

210

主题

2005

帖子

2324

积分

制作组

Rank: 5Rank: 5

UID
50744
积分
2324
冰币
23803
威望
45

制作组大帅大将军人气王子

发表于 2012-3-16 16:03:37 | 显示全部楼层
感谢冰龙的发布
回复 支持 反对

使用道具 举报

0

主题

366

帖子

47

积分

小将

Rank: 2

UID
53350
积分
47
冰币
492
威望
0
发表于 2012-3-16 16:06:01 | 显示全部楼层
感谢冰龙
回复 支持 反对

使用道具 举报

0

主题

1027

帖子

575

积分

大将

Rank: 4

UID
41070
积分
575
冰币
6384
威望
-36
发表于 2012-3-18 17:09:04 | 显示全部楼层

超喜欢哦,绝对给力,必须支持
回复 支持 反对

使用道具 举报

0

主题

272

帖子

66

积分

小将

Rank: 2

UID
47269
积分
66
冰币
708
威望
0
发表于 2012-3-21 20:11:48 | 显示全部楼层
下载收藏了,谢谢楼主无私奉献
回复 支持 反对

使用道具 举报

0

主题

272

帖子

66

积分

小将

Rank: 2

UID
47269
积分
66
冰币
708
威望
0
发表于 2012-3-21 20:12:08 | 显示全部楼层
下载收藏了,谢谢楼主无私奉献
回复 支持 反对

使用道具 举报

0

主题

153

帖子

23

积分

大兵

Rank: 1

UID
45536
积分
23
冰币
191
威望
0
发表于 2012-3-22 09:19:46 | 显示全部楼层
支持楼主
回复 支持 反对

使用道具 举报

0

主题

448

帖子

4

积分

小兵

Rank: 1

UID
23575
积分
4
冰币
801
威望
-80
发表于 2012-3-24 02:43:49 | 显示全部楼层
内容顶起 不错
回复 支持 反对

使用道具 举报

本版积分规则

手机版|小黑屋|冰冰网 ( 粤ICP备10024810号-1 )

GMT+8, 2018-5-26 10:01

Powered by www.discuz.net Discuz! X3.4

© 2001-2012 Comsenz Inc sitemap a67 s80


本站影视音乐资源来自互联网免费共享,仅供交流学习之用,版权归作者本人所有,如果侵犯了您的权益,请通知我们,邮箱地址mail@aapig.com
快速回复 返回顶部 返回列表