冰冰网

 找回密码
 开放注册,禁止乱回复
https://www.aapig.com/mp4-683334-p1-1.html
搜索
查看: 686|回复: 2

[短片] 4k-LG HDR DEMO Dolby Comparison OLED

[复制链接]
 成长值: 700

7972

主题

8144

帖子

49万

积分

参谋

非凡-feifang

Rank: 8Rank: 8

UID
2
积分
495968
冰币
23295
威望
242

管理员

发表于 2017-3-1 10:23:26 | 显示全部楼层 |阅读模式 |        |
HDR ! So your TV has to be able to play this format !
非HDR系统截图只供视频内容参考!
真真的画质和色彩只有在HDR电视上观看才能体验最佳效果!
1.png
2.png
3.png
4.png
General
ID : 1 (0x1)
Complete name : LG.HDR.4K.DEMO_Dolby.Comparison-OLED.ts
Format : MPEG-TS
File size : 294 MiB
Duration : 1 min 15 s
Overall bit rate mode : Constant
Overall bit rate : 32.7 Mbps

Video
ID : 33 (0x21)
Menu ID : 2 (0x2)
Format : HEVC
Format/Info : High Efficiency Video Coding
Format profile : Main 10@L5@Main
Codec ID : 36
Duration : 1 min 14 s
Bit rate : 30.3 Mbps
Width : 3840 pixels
Height : 2160 pixels
Display aspect ratio : 16:9
Frame rate : 23.976 (24000/1001) FPS
Color space : YUV
Chroma subsampling : 4:2:0
Bit depth : 10 bits
Bits/(Pixel*Frame) : 0.152
Stream size : 269 MiB (92%)

Audio
ID : 35 (0x23)
Menu ID : 2 (0x2)
Format : E-AC-3
Format/Info : Enhanced Audio Coding 3
Format settings, Endianness : Big
Codec ID : 135
Duration : 1 min 15 s
Bit rate mode : Constant
Bit rate : 768 kbps
Channel(s) : 6 channels
Channel positions : Front: L C R, Side: L R, LFE
Sampling rate : 48.0 kHz
Frame rate : 187.500 FPS (256 spf)
Compression mode : Lossy
Delay relative to video : -948 ms
Stream size : 6.91 MiB (2%)




百度云下载:
http://pan.baidu.com/s/1kVE2p63 密码: tf44


本人发布的资源如果发现失效,可以私信联系我,能修复的我尽量修复。

1

主题

5066

帖子

730

积分

大将

Rank: 4

UID
365067
积分
730
冰币
7942
威望
0
发表于 2018-3-7 06:34:53 | 显示全部楼层

谢谢搂主无私奉献
回复 支持 反对

使用道具 举报

本版积分规则

手机版|小黑屋|冰冰网 ( 粤ICP备10024810号-1 )

GMT+8, 2018-7-18 22:48

Powered by www.discuz.net Discuz! X3.4

© 2001-2012 Comsenz Inc sitemap a67 s80


本站影视音乐资源来自互联网免费共享,仅供交流学习之用,版权归作者本人所有,如果侵犯了您的权益,请通知我们,邮箱地址mail@aapig.com
快速回复 返回顶部 返回列表