冰冰网

 找回密码
 开放注册,禁止乱回复
搜索
查看: 1730|回复: 1

[欧美] 遗落战境 2013.2160p.BluRay.x265.10bit.HDR.DTS-HD-SWTYBLZ 14GB

[复制链接]
 成长值: 170

7581

主题

7752

帖子

49万

积分

参谋

非凡-feifang

Rank: 8Rank: 8

UID
2
积分
495749
冰币
22342
威望
239

管理员

发表于 2017-12-14 21:19:06 | 显示全部楼层 |阅读模式 |        |

◎中文译名 遗落战境/攻‧元2077(港)/遗忘星球/地平线/遗忘
◎片  名 Oblivion
◎日  期 2013
◎产  地 美国
◎影片类型 动作/科幻/悬疑/冒险
◎对  白 英语
◎上映日期 2013-04-19(美国)/2013-05-10(中国大陆)
◎IMDb评分  7.0/10 from 422,853 users
◎IMDB链接  www.aapig.com.cn www.imdb.com/title/tt1483013/
◎豆瓣评分 6.9/10 from 92,963 users
◎豆瓣链接 https://movie.douban.com/subject/3895511/
◎影片时长 124分钟
◎影片导演 约瑟夫·科辛斯基 Joseph Kosinski
◎主要演员 汤姆·克鲁斯 Tom Cruise
      摩根·弗里曼 Morgan Freeman
      欧嘉·柯瑞兰寇 Olga Kurylenko
      尼可拉·科斯特-瓦尔道 Nikolaj Coster-Waldau
      佐伊·贝尔 Zoe Bell
      梅丽莎·里奥 Melissa Leo
      安德丽亚·瑞斯波罗格 Andrea Riseborough

◎资源介绍

  2017年,母星遭到毁灭的外星流亡者入侵地球。人类虽然用核武器打败对手,但也付出失去家园的惨痛代价。在接下来将近半个世纪的时光中,人类移民泰坦星(土卫六),不过仍有极少部分人类留在故土,扫荡残存的外星掠夺者。杰克·哈珀(汤姆·克鲁斯 Tom Cruise 饰)与维多利亚(安德丽亚·瑞斯波罗格 Andrea Riseborough 饰)即是留守者中的一员,他们的主要任务为保障遍布各地守护水萃取塔的无人机正常运行。看似永无止境的任务终于接近尾声,而就在此刻,不明飞行器坠落一处无人区。杰克在当地发现数名人类伤员,可是他们却遭到无人机的屠杀。危急时刻,杰克救下了一个名为茱莉亚(欧嘉·柯瑞兰寇 Olga Kurylenko 饰)的女子。
  这一事件令杰克无意中知晓了掠夺者以及自身背后隐藏的秘密……

◎获奖情况

  第13届凤凰城影评人协会奖  (2013)
  最佳视觉效果(提名)
  最佳特技表演(提名)

  第15届美国青少年选择奖  (2013)
  最佳科幻/奇幻电影(提名)
  最佳科幻/奇幻电影男演员(提名) 汤姆·克鲁斯

  第4届豆瓣电影鑫像奖  (2014)
  鑫豆单元 最佳科幻/动作片(提名)


Video
ID                                       : 1
Format                                   : HEVC
Format/Info                              : High Efficiency Video Coding
Format profile                           : Main 10@L5.1@High
Codec ID                                 : V_MPEGH/ISO/HEVC
Duration                                 : 2 h 4 min
Bit rate                                 : 7 584 kb/s
Width                                    : 3 840 pixels
Height                                   : 1 600 pixels
Display aspect ratio                     : 2.40:1
Frame rate mode                          : Constant
Frame rate                               : 23.976 (24000/1001) FPS
Color space                              : YUV
Chroma subsampling                       : 4:2:0 (Type 2)
Bit depth                                : 10 bits
Bits/(Pixel*Frame)                       : 0.051
Stream size                              : 6.60 GiB (46%)
Title                                    : Oblivion.2013.2160p.BluRay.x265.10bit.HDR.DTS-HD.MA.TrueHD.7.1.Atmos-SWTYBLZ
Writing library                          : x265 2.5b4a5bcfe29c7:[Windows][GCC 4.9.3][64 bit] 10bit
Encoding settings                        : cpuid=1173503 / frame-threads=16 / numa-pools=24,24,24,24 / wpp / no-pmode / no-pme / no-psnr / no-ssim / log-level=2 / input-csp=1 / input-res=3840x1600 / interlace=0 / total-frames=0 / level-idc=51 / high-tier=1 / uhd-bd=0 / ref=3 / no-allow-non-conformance / repeat-headers / annexb / aud / hrd / info / hash=0 / no-temporal-layers / no-open-gop / min-keyint=1 / keyint=24 / bframes=4 / b-adapt=2 / b-pyramid / bframe-bias=0 / rc-lookahead=25 / lookahead-slices=4 / scenecut=40 / no-intra-refresh / ctu=64 / min-cu-size=8 / no-rect / no-amp / max-tu-size=32 / tu-inter-depth=1 / tu-intra-depth=1 / limit-tu=0 / rdoq-level=0 / dynamic-rd=0.00 / no-ssim-rd / signhide / no-tskip / nr-intra=0 / nr-inter=0 / no-constrained-intra / strong-intra-smoothing / max-merge=2 / limit-refs=3 / no-limit-modes / me=1 / subme=2 / merange=57 / temporal-mvp / weightp / no-weightb / no-analyze-src-pics / deblock=0:0 / no-sao / no-sao-non-deblock / rd=3 / no-early-skip / rskip / no-fast-intra / no-tskip-fast / no-cu-lossless / no-b-intra / rdpenalty=0 / psy-rd=2.00 / psy-rdoq=0.00 / no-rd-refine / analysis-reuse-mode=0 / no-lossless / cbqpoffs=0 / crqpoffs=0 / rc=crf / crf=16.0 / qcomp=0.60 / qpstep=4 / stats-write=0 / stats-read=0 / vbv-maxrate=160000 / vbv-bufsize=160000 / vbv-init=0.9 / crf-max=0.0 / crf-min=0.0 / ipratio=1.40 / pbratio=1.30 / aq-mode=1 / aq-strength=1.00 / cutree / zone-count=0 / no-strict-cbr / qg-size=32 / no-rc-grain / qpmax=69 / qpmin=0 / no-const-vbv / sar=1 / overscan=0 / videoformat=5 / range=0 / colorprim=9 / transfer=16 / colormatrix=9 / chromaloc=1 / chromaloc-top=2 / chromaloc-bottom=2 / display-window=0 / master-display=G(13250,34500)B(7500,3000)R(34000,16000)WP(15635,16450)L(10000000,50) / max-cll=1000,400 / min-luma=0 / max-luma=1023 / log2-max-poc-lsb=8 / vui-timing-info / vui-hrd-info / slices=1 / opt-qp-pps / opt-ref-list-length-pps / no-multi-pass-opt-rps / scenecut-bias=0.05 / no-opt-cu-delta-qp / no-aq-motion / hdr / hdr-opt / no-dhdr10-opt / analysis-reuse-level=5 / scale-factor=0 / refine-intra=0 / refine-inter=0 / refine-mv=0 / no-limit-sao / ctu-info=0
Default                                  : Yes
Forced                                   : No
Color range                              : Limited
Color primaries                          : BT.2020
Transfer characteristics                 : PQ
Matrix coefficients                      : BT.2020 non-constant
Mastering display color primaries        : R: x=0.680000 y=0.320000, G: x=0.265000 y=0.690000, B: x=0.150000 y=0.060000, White point: x=0.312700 y=0.329000
Mastering display luminance              : min: 0.0050 cd/m2, max: 1000.0000 cd/m2
Maximum Content Light Level              : 1000 cd/m2
Maximum Frame-Average Light Level        : 400 cd/m2

Audio #1
ID                                       : 2
Format                                   : TrueHD
Format profile                           : TrueHD+Atmos / TrueHD
Codec ID                                 : A_TRUEHD
Duration                                 : 2 h 4 min
Bit rate mode                            : Variable
Bit rate                                 : 4 309 kb/s
Maximum bit rate                         : 7 854 kb/s
Channel(s)                               : Object Based / 8 channels
Channel positions                        : Object Based / Front: L C R, Side: L R, Back: L R, LFE
Sampling rate                            :  / 48.0 kHz
Frame rate                               : 1 200.000 FPS (40 SPF)
Compression mode                         : Lossless
Delay relative to video                  : 32 ms
Stream size                              : 3.75 GiB (26%)
Title                                    : Oblivion.2013.2160p.BluRay.x265.10bit.HDR.DTS-HD.MA.TrueHD.7.1.Atmos-SWTYBLZ
Language                                 : English
Default                                  : Yes
Forced                                   : No

Audio #2
ID                                       : 3
Format                                   : DTS
Format/Info                              : Digital Theater Systems
Format profile                           : MA / Core
Codec ID                                 : A_DTS
Duration                                 : 2 h 4 min
Bit rate mode                            : Variable / Constant
Bit rate                                 : 3 840 kb/s / 1 509 kb/s
Channel(s)                               : 8 channels / 6 channels
Channel positions                        : Front: L C R, Side: L R, Back: L R, LFE / Front: L C R, Side: L R, LFE
Sampling rate                            : 48.0 kHz
Frame rate                               : 93.750 FPS (512 SPF)
Bit depth                                : 24 bits
Compression mode                         : Lossless / Lossy
Stream size                              : 3.28 GiB (23%)
Title                                    : Oblivion.2013.2160p.BluRay.x265.10bit.HDR.DTS-HD.MA.TrueHD.7.1.Atmos-SWTYBLZ
Language                                 : English
Default                                  : No
Forced                                   : No

Audio #3
ID                                       : 4
Format                                   : AC-3
Format/Info                              : Audio Coding 3
Codec ID                                 : A_AC3
Duration                                 : 2 h 4 min
Bit rate mode                            : Constant
Bit rate                                 : 640 kb/s
Channel(s)                               : 6 channels
Channel positions                        : Front: L C R, Side: L R, LFE
Sampling rate                            : 48.0 kHz
Frame rate                               : 31.250 FPS (1536 SPF)
Bit depth                                : 16 bits
Compression mode                         : Lossy
Delay relative to video                  : 31 ms
Stream size                              : 570 MiB (4%)
Title                                    : Oblivion.2013.2160p.BluRay.x265.10bit.HDR.DTS-HD.MA.TrueHD.7.1.Atmos-SWTYBLZ
Language                                 : English
Service kind                             : Complete Main
Default                                  : No
Forced                                   : No

Text #1
ID                                       : 5
Format                                   : UTF-8
Codec ID                                 : S_TEXT/UTF8
Codec ID/Info                            : UTF-8 Plain Text
Duration                                 : 1 h 57 min
Bit rate                                 : 33 b/s
Count of elements                        : 1026
Stream size                              : 28.7 KiB (0%)
Title                                    : English-SRT
Language                                 : English
Default                                  : Yes
Forced                                   : No

Text #2
ID                                       : 6
Format                                   : PGS
Muxing mode                              : zlib
Codec ID                                 : S_HDMV/PGS
Codec ID/Info                            : Picture based subtitle format used on BDs/HD-DVDs
Duration                                 : 1 h 57 min
Bit rate                                 : 20.7 kb/s
Count of elements                        : 2052
Stream size                              : 17.4 MiB (0%)
Title                                    : English-PGS
Language                                 : English
Default                                  : No
Forced                                   : No

Text #3
ID                                       : 7
Format                                   : PGS
Muxing mode                              : zlib
Codec ID                                 : S_HDMV/PGS
Codec ID/Info                            : Picture based subtitle format used on BDs/HD-DVDs
Duration                                 : 2 h 0 min
Bit rate                                 : 13.6 kb/s
Count of elements                        : 1860
Stream size                              : 11.8 MiB (0%)
Title                                    : Japanese-PGS
Language                                 : Japanese
Default                                  : No
Forced                                   : No

Text #4
ID                                       : 8
Format                                   : PGS
Muxing mode                              : zlib
Codec ID                                 : S_HDMV/PGS
Codec ID/Info                            : Picture based subtitle format used on BDs/HD-DVDs
Duration                                 : 2 h 3 min
Bit rate                                 : 16.7 kb/s
Count of elements                        : 1832
Stream size                              : 14.8 MiB (0%)
Title                                    : French-PGS
Language                                 : French
Default                                  : No
Forced                                   : No

Text #5
ID                                       : 9
Format                                   : PGS
Muxing mode                              : zlib
Codec ID                                 : S_HDMV/PGS
Codec ID/Info                            : Picture based subtitle format used on BDs/HD-DVDs
Duration                                 : 2 h 3 min
Bit rate                                 : 20.0 kb/s
Count of elements                        : 1892
Stream size                              : 17.8 MiB (0%)
Title                                    : German-PGS
Language                                 : German
Default                                  : No
Forced                                   : No

Text #6
ID                                       : 10
Format                                   : PGS
Muxing mode                              : zlib
Codec ID                                 : S_HDMV/PGS
Codec ID/Info                            : Picture based subtitle format used on BDs/HD-DVDs
Duration                                 : 2 h 3 min
Bit rate                                 : 17.5 kb/s
Count of elements                        : 1726
Stream size                              : 15.5 MiB (0%)
Title                                    : Swedish-PGS
Language                                 : Swedish
Default                                  : No
Forced                                   : No

Text #7
ID                                       : 11
Format                                   : PGS
Muxing mode                              : zlib
Codec ID                                 : S_HDMV/PGS
Codec ID/Info                            : Picture based subtitle format used on BDs/HD-DVDs
Duration                                 : 2 h 3 min
Bit rate                                 : 17.3 kb/s
Count of elements                        : 1572
Stream size                              : 15.3 MiB (0%)
Title                                    : Danish-PGS
Language                                 : Danish
Default                                  : No
Forced                                   : No

Text #8
ID                                       : 12
Format                                   : PGS
Muxing mode                              : zlib
Codec ID                                 : S_HDMV/PGS
Codec ID/Info                            : Picture based subtitle format used on BDs/HD-DVDs
Duration                                 : 2 h 3 min
Bit rate                                 : 14.3 kb/s
Count of elements                        : 1410
Stream size                              : 12.7 MiB (0%)
Title                                    : Finnish-PGS
Language                                 : Finnish
Default                                  : No
Forced                                   : No

Text #9
ID                                       : 13
Format                                   : PGS
Muxing mode                              : zlib
Codec ID                                 : S_HDMV/PGS
Codec ID/Info                            : Picture based subtitle format used on BDs/HD-DVDs
Duration                                 : 2 h 3 min
Bit rate                                 : 16.3 kb/s
Count of elements                        : 1584
Stream size                              : 14.5 MiB (0%)
Title                                    : Dutch-PGS
Language                                 : Dutch
Default                                  : No
Forced                                   : No

Text #10
ID                                       : 14
Format                                   : PGS
Muxing mode                              : zlib
Codec ID                                 : S_HDMV/PGS
Codec ID/Info                            : Picture based subtitle format used on BDs/HD-DVDs
Duration                                 : 2 h 3 min
Bit rate                                 : 15.4 kb/s
Count of elements                        : 1744
Stream size                              : 13.7 MiB (0%)
Title                                    : Norwegian-pGS
Language                                 : Norwegian
Default                                  : No
Forced                                   : No

Text #11
ID                                       : 15
Format                                   : PGS
Muxing mode                              : zlib
Codec ID                                 : S_HDMV/PGS
Codec ID/Info                            : Picture based subtitle format used on BDs/HD-DVDs
Duration                                 : 2 h 3 min
Bit rate                                 : 19.5 kb/s
Count of elements                        : 1872
Stream size                              : 17.3 MiB (0%)
Title                                    : Greek-PGS
Language                                 : Greek
Default                                  : No
Forced                                   : No

Text #12
ID                                       : 16
Format                                   : PGS
Muxing mode                              : zlib
Codec ID                                 : S_HDMV/PGS
Codec ID/Info                            : Picture based subtitle format used on BDs/HD-DVDs
Duration                                 : 2 h 3 min
Bit rate                                 : 18.6 kb/s
Count of elements                        : 1892
Stream size                              : 16.5 MiB (0%)
Title                                    : Turkish-PGS
Language                                 : Turkish
Default                                  : No
Forced                                   : No

Text #13
ID                                       : 17
Format                                   : PGS
Muxing mode                              : zlib
Codec ID                                 : S_HDMV/PGS
Codec ID/Info                            : Picture based subtitle format used on BDs/HD-DVDs
Duration                                 : 2 h 3 min
Bit rate                                 : 32.8 kb/s
Count of elements                        : 3104
Stream size                              : 29.0 MiB (0%)
Title                                    : Japanese-PGS
Language                                 : Japanese
Default                                  : No
Forced                                   : No

Menu
00:00:00.000                             : en:Chapter 1
00:04:31.354                             : en:Chapter 2
00:12:51.812                             : en:Chapter 3
00:21:25.284                             : en:Chapter 4
00:27:20.138                             : en:Chapter 5
00:35:30.336                             : en:Chapter 6
00:40:06.779                             : en:Chapter 7
00:46:16.023                             : en:Chapter 8
00:52:22.180                             : en:Chapter 9
01:01:59.716                             : en:Chapter 10
01:07:59.408                             : en:Chapter 11
01:16:25.831                             : en:Chapter 12
01:22:08.173                             : en:Chapter 13
01:25:31.751                             : en:Chapter 14
01:30:22.542                             : en:Chapter 15
01:36:30.367                             : en:Chapter 16
01:40:29.106                             : en:Chapter 17
01:46:27.422                             : en:Chapter 18
01:53:05.320                             : en:Chapter 19
01:58:23.846                             : en:Chapter 20







种子百度云下载:
https://pan.baidu.com/s/1bpydCV9 密码: rvsd

种子本地下载:

Oblivion.2013.2160p.BluRay.x265.10bit.HDR.DTS-HD.MA.TrueHD.7.1.Atmos-SWTYBLZ.torrent (72.97 KB, 下载次数: 18)
本人发布的资源如果发现失效,可以私信联系我,能修复的我尽量修复。

0

主题

666

帖子

288

积分

部将

Rank: 3Rank: 3

UID
446381
积分
288
冰币
3120
威望
0
发表于 2017-12-15 12:50:17 | 显示全部楼层

感谢楼主分享。
回复 支持 反对

使用道具 举报

本版积分规则

手机版|小黑屋|冰冰网 ( 粤ICP备10024810号-1 )

GMT+8, 2018-5-26 12:22

Powered by www.discuz.net Discuz! X3.4

© 2001-2012 Comsenz Inc sitemap a67 s80


本站影视音乐资源来自互联网免费共享,仅供交流学习之用,版权归作者本人所有,如果侵犯了您的权益,请通知我们,邮箱地址mail@aapig.com
快速回复 返回顶部 返回列表