冰冰网

 找回密码
 开放注册,禁止乱回复
搜索
查看: 1747|回复: 1

[欧美] 全民超人汉考克 2008.2160p.BluRay.x265.10bit.HDR.DTS-HD-SWTYBLZ 22GB

[复制链接]
 成长值: 190

7591

主题

7762

帖子

49万

积分

参谋

非凡-feifang

Rank: 8Rank: 8

UID
2
积分
495755
冰币
22377
威望
239

管理员

发表于 2017-12-14 21:22:03 | 显示全部楼层 |阅读模式 |        |

◎中文译名 全民超人汉考克/全民超人/街头超人
◎片  名 Hancock
◎日  期 2008
◎产  地 美国
◎影片类型 动作/犯罪/奇幻
◎对  白 英语/日语
◎上映日期 2008-07-02(美国)
◎IMDb评分  6.4/10 from 379,444 users
◎IMDB链接  www.aapig.com.cn www.imdb.com/title/tt0448157/
◎豆瓣评分 6.7/10 from 124,601 users
◎豆瓣链接 https://movie.douban.com/subject/1949312/
◎影片时长 92 分钟/102 分钟(未分级版)
◎影片导演 彼得·博格 Peter Berg
◎主要演员 威尔·史密斯 Will Smith
      查理兹·塞隆 Charlize Theron
      杰森·贝特曼 Jason Bateman
      杰·海德 Jae Head
      埃迪·马森 Eddie Marsan
      约翰尼·盖尔克奇 Johnny Galecki

◎资源介绍

  Hancock(Will Smith饰),是刀枪不入的全民超人,犯罪分子对他闻风丧胆。然而这位全民超人每次与犯罪分子对峙都闹得惊天动地,造成严重的破坏,对市民的生命和公共财产都是巨大的威胁。这也就是虽然他有着独一无二的能力却仍然得不到大众认同的原因。他暴躁易怒又不辩解的个性更是激化了矛盾。这天公关经理Ray Embrey(Jason Bateman饰)十分倒霉,不仅他的全球爱心理念推销不出去,更在回家的途中被塞车堵在了火车轨道上,险些就被火车一碾而过。Hancock及时出现救了他一命,不可阻挡地破坏了火车和现场的交通,惹起众怒。Ray却灵光一闪,决定包装Hancock,把他塑造成为一位全民爱戴的英雄。没想到,最大的反对竟然来自他的妻子Mary(Charlize Theron饰),她坚持要Hancock离开她的家庭。事情发展下去,牵扯出令人惊讶的缠绵前缘。


Video
ID                                       : 1
Format                                   : HEVC
Format/Info                              : High Efficiency Video Coding
Format profile                           : Main 10@L5.1@High
Codec ID                                 : V_MPEGH/ISO/HEVC
Duration                                 : 1 h 32 min
Bit rate                                 : 25.7 Mb/s
Width                                    : 3 840 pixels
Height                                   : 1 600 pixels
Display aspect ratio                     : 2.40:1
Frame rate mode                          : Constant
Frame rate                               : 23.976 (24000/1001) FPS
Color space                              : YUV
Chroma subsampling                       : 4:2:0 (Type 2)
Bit depth                                : 10 bits
Bits/(Pixel*Frame)                       : 0.175
Stream size                              : 16.6 GiB (73%)
Writing library                          : x265 2.5b4a5bcfe29c7:[Windows][GCC 4.9.3][64 bit] 10bit
Encoding settings                        : cpuid=1173503 / frame-threads=16 / numa-pools=24,24,24,24 / wpp / no-pmode / no-pme / no-psnr / no-ssim / log-level=2 / input-csp=1 / input-res=3840x1600 / interlace=0 / total-frames=0 / level-idc=51 / high-tier=1 / uhd-bd=0 / ref=3 / no-allow-non-conformance / repeat-headers / annexb / aud / hrd / info / hash=0 / no-temporal-layers / no-open-gop / min-keyint=1 / keyint=24 / bframes=4 / b-adapt=2 / b-pyramid / bframe-bias=0 / rc-lookahead=25 / lookahead-slices=4 / scenecut=40 / no-intra-refresh / ctu=64 / min-cu-size=8 / no-rect / no-amp / max-tu-size=32 / tu-inter-depth=1 / tu-intra-depth=1 / limit-tu=0 / rdoq-level=0 / dynamic-rd=0.00 / no-ssim-rd / signhide / no-tskip / nr-intra=0 / nr-inter=0 / no-constrained-intra / strong-intra-smoothing / max-merge=2 / limit-refs=3 / no-limit-modes / me=1 / subme=2 / merange=57 / temporal-mvp / weightp / no-weightb / no-analyze-src-pics / deblock=0:0 / no-sao / no-sao-non-deblock / rd=3 / no-early-skip / rskip / no-fast-intra / no-tskip-fast / no-cu-lossless / no-b-intra / rdpenalty=0 / psy-rd=2.00 / psy-rdoq=0.00 / no-rd-refine / analysis-reuse-mode=0 / no-lossless / cbqpoffs=0 / crqpoffs=0 / rc=crf / crf=16.0 / qcomp=0.60 / qpstep=4 / stats-write=0 / stats-read=0 / vbv-maxrate=160000 / vbv-bufsize=160000 / vbv-init=0.9 / crf-max=0.0 / crf-min=0.0 / ipratio=1.40 / pbratio=1.30 / aq-mode=1 / aq-strength=1.00 / cutree / zone-count=0 / no-strict-cbr / qg-size=32 / no-rc-grain / qpmax=69 / qpmin=0 / no-const-vbv / sar=1 / overscan=0 / videoformat=5 / range=0 / colorprim=9 / transfer=16 / colormatrix=9 / chromaloc=1 / chromaloc-top=2 / chromaloc-bottom=2 / display-window=0 / master-display=G(13250,34500)B(7500,3000)R(34000,16000)WP(15635,16450)L(40000000,50) / max-cll=1419,520 / min-luma=0 / max-luma=1023 / log2-max-poc-lsb=8 / vui-timing-info / vui-hrd-info / slices=1 / opt-qp-pps / opt-ref-list-length-pps / no-multi-pass-opt-rps / scenecut-bias=0.05 / no-opt-cu-delta-qp / no-aq-motion / hdr / hdr-opt / no-dhdr10-opt / analysis-reuse-level=5 / scale-factor=0 / refine-intra=0 / refine-inter=0 / refine-mv=0 / no-limit-sao / ctu-info=0
Default                                  : Yes
Forced                                   : No
Color range                              : Limited
Color primaries                          : BT.2020
Transfer characteristics                 : PQ
Matrix coefficients                      : BT.2020 non-constant
Mastering display color primaries        : R: x=0.680000 y=0.320000, G: x=0.265000 y=0.690000, B: x=0.150000 y=0.060000, White point: x=0.312700 y=0.329000
Mastering display luminance              : min: 0.0050 cd/m2, max: 4000.0000 cd/m2
Maximum Content Light Level              : 1419 cd/m2
Maximum Frame-Average Light Level        : 520 cd/m2

Audio #1
ID                                       : 2
Format                                   : TrueHD
Format profile                           : TrueHD+Atmos / TrueHD
Codec ID                                 : A_TRUEHD
Duration                                 : 1 h 32 min
Bit rate mode                            : Variable
Bit rate                                 : 4 816 kb/s
Maximum bit rate                         : 8 286 kb/s
Channel(s)                               : Object Based / 8 channels
Channel positions                        : Object Based / Front: L C R, Side: L R, Back: L R, LFE
Sampling rate                            :  / 48.0 kHz
Frame rate                               : 1 200.000 FPS (40 SPF)
Compression mode                         : Lossless
Stream size                              : 3.10 GiB (14%)
Title                                    : Hancock.2008.2160p.BluRay.REMUX.HEVC.DTS-HD.MA.TrueHD.7.1.Atmos-FGT
Language                                 : English
Default                                  : Yes
Forced                                   : No

Audio #2
ID                                       : 3
Format                                   : DTS
Format/Info                              : Digital Theater Systems
Format profile                           : MA / Core
Codec ID                                 : A_DTS
Duration                                 : 1 h 32 min
Bit rate mode                            : Variable / Constant
Bit rate                                 : 3 840 kb/s / 1 509 kb/s
Channel(s)                               : 8 channels / 6 channels
Channel positions                        : Front: L C R, Side: L R, Back: L R, LFE / Front: L C R, Side: L R, LFE
Sampling rate                            : 48.0 kHz
Frame rate                               : 93.750 FPS (512 SPF)
Bit depth                                : 24 bits
Compression mode                         : Lossless / Lossy
Stream size                              : 2.46 GiB (11%)
Title                                    : Hancock.2008.2160p.BluRay.REMUX.HEVC.DTS-HD.MA.TrueHD.7.1.Atmos-FGT
Language                                 : English
Default                                  : No
Forced                                   : No

Audio #3
ID                                       : 4
Format                                   : AC-3
Format/Info                              : Audio Coding 3
Codec ID                                 : A_AC3
Duration                                 : 1 h 32 min
Bit rate mode                            : Constant
Bit rate                                 : 640 kb/s
Channel(s)                               : 6 channels
Channel positions                        : Front: L C R, Side: L R, LFE
Sampling rate                            : 48.0 kHz
Frame rate                               : 31.250 FPS (1536 SPF)
Bit depth                                : 16 bits
Compression mode                         : Lossy
Stream size                              : 422 MiB (2%)
Title                                    : Hancock.2008.2160p.BluRay.REMUX.HEVC.DTS-HD.MA.TrueHD.7.1.Atmos-FGT
Language                                 : English
Service kind                             : Complete Main
Default                                  : No
Forced                                   : No

Text #1
ID                                       : 5
Format                                   : UTF-8
Codec ID                                 : S_TEXT/UTF8
Codec ID/Info                            : UTF-8 Plain Text
Duration                                 : 1 h 25 min
Bit rate                                 : 60 b/s
Count of elements                        : 1029
Stream size                              : 37.6 KiB (0%)
Title                                    : English-SRT
Language                                 : English
Default                                  : Yes
Forced                                   : No

Text #2
ID                                       : 6
Format                                   : PGS
Muxing mode                              : zlib
Codec ID                                 : S_HDMV/PGS
Codec ID/Info                            : Picture based subtitle format used on BDs/HD-DVDs
Duration                                 : 1 h 25 min
Bit rate                                 : 33.8 kb/s
Count of elements                        : 2057
Stream size                              : 20.7 MiB (0%)
Title                                    : English-PGS
Language                                 : English
Default                                  : No
Forced                                   : No

Text #3
ID                                       : 7
Format                                   : PGS
Muxing mode                              : zlib
Codec ID                                 : S_HDMV/PGS
Codec ID/Info                            : Picture based subtitle format used on BDs/HD-DVDs
Duration                                 : 1 h 25 min
Bit rate                                 : 33.8 kb/s
Count of elements                        : 2057
Stream size                              : 20.7 MiB (0%)
Title                                    : English-PGS
Language                                 : English
Default                                  : No
Forced                                   : No

Text #4
ID                                       : 8
Format                                   : PGS
Muxing mode                              : zlib
Codec ID                                 : S_HDMV/PGS
Codec ID/Info                            : Picture based subtitle format used on BDs/HD-DVDs
Duration                                 : 1 h 31 min
Bit rate                                 : 25.9 kb/s
Count of elements                        : 2452
Stream size                              : 16.9 MiB (0%)
Title                                    : English-PGS
Language                                 : English
Default                                  : No
Forced                                   : No

Text #5
ID                                       : 9
Format                                   : PGS
Muxing mode                              : zlib
Codec ID                                 : S_HDMV/PGS
Codec ID/Info                            : Picture based subtitle format used on BDs/HD-DVDs
Duration                                 : 1 h 25 min
Bit rate                                 : 15.9 kb/s
Count of elements                        : 2007
Stream size                              : 9.72 MiB (0%)
Title                                    : Arabic-PGS
Language                                 : Arabic
Default                                  : No
Forced                                   : No

Text #6
ID                                       : 10
Format                                   : PGS
Muxing mode                              : zlib
Codec ID                                 : S_HDMV/PGS
Codec ID/Info                            : Picture based subtitle format used on BDs/HD-DVDs
Duration                                 : 1 h 25 min
Bit rate                                 : 27.5 kb/s
Count of elements                        : 1581
Stream size                              : 16.8 MiB (0%)
Title                                    : Danish-PGS
Language                                 : Danish
Default                                  : No
Forced                                   : No

Text #7
ID                                       : 11
Format                                   : PGS
Muxing mode                              : zlib
Codec ID                                 : S_HDMV/PGS
Codec ID/Info                            : Picture based subtitle format used on BDs/HD-DVDs
Duration                                 : 1 h 25 min
Bit rate                                 : 27.0 kb/s
Count of elements                        : 1575
Stream size                              : 16.5 MiB (0%)
Title                                    : Dutch-PGS
Language                                 : Dutch
Default                                  : No
Forced                                   : No

Text #8
ID                                       : 12
Format                                   : PGS
Muxing mode                              : zlib
Codec ID                                 : S_HDMV/PGS
Codec ID/Info                            : Picture based subtitle format used on BDs/HD-DVDs
Duration                                 : 1 h 25 min
Bit rate                                 : 25.0 kb/s
Count of elements                        : 1799
Stream size                              : 15.3 MiB (0%)
Title                                    : Finnish-PGS
Language                                 : Finnish
Default                                  : No
Forced                                   : No

Text #9
ID                                       : 13
Format                                   : PGS
Muxing mode                              : zlib
Codec ID                                 : S_HDMV/PGS
Codec ID/Info                            : Picture based subtitle format used on BDs/HD-DVDs
Duration                                 : 1 h 31 min
Bit rate                                 : 23.5 kb/s
Count of elements                        : 2003
Stream size                              : 15.4 MiB (0%)
Title                                    : French-PGS
Language                                 : French
Default                                  : No
Forced                                   : No

Text #10
ID                                       : 14
Format                                   : PGS
Muxing mode                              : zlib
Codec ID                                 : S_HDMV/PGS
Codec ID/Info                            : Picture based subtitle format used on BDs/HD-DVDs
Duration                                 : 1 h 25 min
Bit rate                                 : 29.3 kb/s
Count of elements                        : 1997
Stream size                              : 17.9 MiB (0%)
Title                                    : German-PGS
Language                                 : German
Default                                  : No
Forced                                   : No

Text #11
ID                                       : 15
Format                                   : PGS
Muxing mode                              : zlib
Codec ID                                 : S_HDMV/PGS
Codec ID/Info                            : Picture based subtitle format used on BDs/HD-DVDs
Duration                                 : 1 h 25 min
Bit rate                                 : 35.4 kb/s
Count of elements                        : 2073
Stream size                              : 21.7 MiB (0%)
Title                                    : Italian-PGS
Language                                 : Italian
Default                                  : No
Forced                                   : No

Text #12
ID                                       : 16
Format                                   : PGS
Muxing mode                              : zlib
Codec ID                                 : S_HDMV/PGS
Codec ID/Info                            : Picture based subtitle format used on BDs/HD-DVDs
Duration                                 : 1 h 25 min
Bit rate                                 : 23.1 kb/s
Count of elements                        : 1985
Stream size                              : 14.2 MiB (0%)
Title                                    : Japanese-PGS
Language                                 : Japanese
Default                                  : No
Forced                                   : No

Text #13
ID                                       : 17
Format                                   : PGS
Muxing mode                              : zlib
Codec ID                                 : S_HDMV/PGS
Codec ID/Info                            : Picture based subtitle format used on BDs/HD-DVDs
Duration                                 : 1 h 25 min
Bit rate                                 : 19.4 kb/s
Count of elements                        : 1985
Stream size                              : 11.9 MiB (0%)
Title                                    : Korean-PGS
Language                                 : Korean
Default                                  : No
Forced                                   : No

Text #14
ID                                       : 18
Format                                   : PGS
Muxing mode                              : zlib
Codec ID                                 : S_HDMV/PGS
Codec ID/Info                            : Picture based subtitle format used on BDs/HD-DVDs
Duration                                 : 1 h 25 min
Bit rate                                 : 24.1 kb/s
Count of elements                        : 1979
Stream size                              : 14.8 MiB (0%)
Title                                    : Norwegian-PGS
Language                                 : Norwegian
Default                                  : No
Forced                                   : No

Text #15
ID                                       : 19
Format                                   : PGS
Muxing mode                              : zlib
Codec ID                                 : S_HDMV/PGS
Codec ID/Info                            : Picture based subtitle format used on BDs/HD-DVDs
Duration                                 : 1 h 25 min
Bit rate                                 : 27.8 kb/s
Count of elements                        : 2001
Stream size                              : 17.0 MiB (0%)
Title                                    : Portuguese-PGS
Language                                 : Portuguese
Default                                  : No
Forced                                   : No

Text #16
ID                                       : 20
Format                                   : PGS
Muxing mode                              : zlib
Codec ID                                 : S_HDMV/PGS
Codec ID/Info                            : Picture based subtitle format used on BDs/HD-DVDs
Duration                                 : 1 h 25 min
Bit rate                                 : 27.7 kb/s
Count of elements                        : 2105
Stream size                              : 16.9 MiB (0%)
Title                                    : Spanish-PGS
Language                                 : Spanish
Default                                  : No
Forced                                   : No

Text #17
ID                                       : 21
Format                                   : PGS
Muxing mode                              : zlib
Codec ID                                 : S_HDMV/PGS
Codec ID/Info                            : Picture based subtitle format used on BDs/HD-DVDs
Duration                                 : 1 h 25 min
Bit rate                                 : 29.9 kb/s
Count of elements                        : 2019
Stream size                              : 18.3 MiB (0%)
Title                                    : Spanish-PGS
Language                                 : Spanish
Default                                  : No
Forced                                   : No

Text #18
ID                                       : 22
Format                                   : PGS
Muxing mode                              : zlib
Codec ID                                 : S_HDMV/PGS
Codec ID/Info                            : Picture based subtitle format used on BDs/HD-DVDs
Duration                                 : 1 h 25 min
Bit rate                                 : 27.3 kb/s
Count of elements                        : 1506
Stream size                              : 16.7 MiB (0%)
Title                                    : Swedish-PGS
Language                                 : Swedish
Default                                  : No
Forced                                   : No

Text #19
ID                                       : 23
Format                                   : PGS
Muxing mode                              : zlib
Codec ID                                 : S_HDMV/PGS
Codec ID/Info                            : Picture based subtitle format used on BDs/HD-DVDs
Duration                                 : 1 h 25 min
Bit rate                                 : 31.6 kb/s
Count of elements                        : 2095
Stream size                              : 19.4 MiB (0%)
Title                                    : Turkish-PGS
Language                                 : Turkish
Default                                  : No
Forced                                   : No

Text #20
ID                                       : 24
Format                                   : PGS
Muxing mode                              : zlib
Codec ID                                 : S_HDMV/PGS
Codec ID/Info                            : Picture based subtitle format used on BDs/HD-DVDs
Duration                                 : 1 h 19 min
Bit rate                                 : 378 b/s
Count of elements                        : 28
Stream size                              : 219 KiB (0%)
Title                                    : Catalan-PGS
Language                                 : Catalan
Default                                  : No
Forced                                   : No

Text #21
ID                                       : 25
Format                                   : PGS
Muxing mode                              : zlib
Codec ID                                 : S_HDMV/PGS
Codec ID/Info                            : Picture based subtitle format used on BDs/HD-DVDs
Duration                                 : 1 h 19 min
Bit rate                                 : 282 b/s
Count of elements                        : 26
Stream size                              : 164 KiB (0%)
Title                                    : Japanese-PGS
Language                                 : Japanese
Default                                  : No
Forced                                   : No

Menu
00:00:00.000                             : en:Chapter 1
00:06:55.623                             : en:Chapter 2
00:12:36.255                             : en:Chapter 3
00:19:04.768                             : en:Chapter 4
00:23:12.432                             : en:Chapter 5
00:30:05.178                             : en:Chapter 6
00:37:08.726                             : en:Chapter 7
00:41:25.149                             : en:Chapter 8
00:44:19.907                             : en:Chapter 9
00:48:08.760                             : en:Chapter 10
00:54:30.684                             : en:Chapter 11
00:59:43.037                             : en:Chapter 12
01:05:11.908                             : en:Chapter 13
01:11:31.078                             : en:Chapter 14
01:15:33.737                             : en:Chapter 15
01:21:00.605                             : en:Chapter 16







种子百度云下载:
https://pan.baidu.com/s/1c2LIg2s 密码: bqcy

种子本地下载:

Hancock.2008.2160p.BluRay.x265.10bit.HDR.DTS-HD.MA.TrueHD.7.1.Atmos-SWTYBLZ.torrent (58.11 KB, 下载次数: 20)
本人发布的资源如果发现失效,可以私信联系我,能修复的我尽量修复。

0

主题

668

帖子

290

积分

部将

Rank: 3Rank: 3

UID
446381
积分
290
冰币
3146
威望
0
发表于 2017-12-15 12:49:53 | 显示全部楼层

感谢楼主分享。
回复 支持 反对

使用道具 举报

本版积分规则

手机版|小黑屋|冰冰网 ( 粤ICP备10024810号-1 )

GMT+8, 2018-5-28 01:28

Powered by www.discuz.net Discuz! X3.4

© 2001-2012 Comsenz Inc sitemap a67 s80


本站影视音乐资源来自互联网免费共享,仅供交流学习之用,版权归作者本人所有,如果侵犯了您的权益,请通知我们,邮箱地址mail@aapig.com
快速回复 返回顶部 返回列表