冰冰网

 找回密码
 开放注册,禁止乱回复
搜索
查看: 1782|回复: 2

[欧美] 王牌特工:特工学院 2014.2160p.BluRay.x265.10bit.HDR.DTS-SWTYBLZ 17.9GB

[复制链接]
 成长值: 120

7525

主题

7696

帖子

49万

积分

参谋

非凡-feifang

Rank: 8Rank: 8

UID
2
积分
495716
冰币
22197
威望
237

管理员

发表于 2017-12-15 21:10:55 | 显示全部楼层 |阅读模式 |        |

◎中文译名 王牌特工:特工学院/皇家特工:间谍密令(港)/金牌特务(台)/金牌特工/特勤局/王的男人之秘密服务(豆友译名)
◎片  名 Kingsman: The Secret Service
◎日  期 2015
◎产  地 英国/美国
◎影片类型 喜剧/动作/冒险
◎对  白 英语/阿拉伯语/瑞典语
◎上映日期 2015-01-29(英国)/2015-03-27(中国大陆)
◎IMDb评分  7.7/10 from 483,435 users
◎IMDB链接  www.aapig.com.cn www.imdb.com/title/tt2802144/
◎豆瓣评分 8.4/10 from 341,172 users
◎豆瓣链接 https://movie.douban.com/subject/24405378/
◎影片时长 125分钟(中国大陆)/129分钟
◎影片导演 马修·沃恩 Matthew Vaughn
◎主要演员 塔伦·埃格顿 Taron Egerton
      柯林·菲尔斯 Colin Firth
      塞缪尔·杰克逊 Samuel L. Jackson
      迈克尔·凯恩 Michael Caine
      马克·斯特朗 Mark Strong
      索菲·库克森 Sophie Cookson
      索菲亚·波多拉 Sofia Boutella
      马克·哈米尔 Mark Hamill
      杰克·达文波特 Jack Davenport
      萨曼塔·沃马克 Samantha Womack
      汉娜·奥斯特罗姆 Hanna Alström
      约诺·戴维斯 Jonno Davies
      亚历克斯·尼科洛夫 Alex Nikolov
      维利贝·托皮奇 Velibor Topic
      杰夫·贝尔 Geoff Bell
      艾德里安·奎因顿 Adrian Quinton
      乔丹·朗 Jordan Long
      西奥·巴克利姆比格斯 Theo Barklem-Biggs
      摩根·華金斯 Morgan Watkins
      拉尔夫·尹爱森 Ralph Ineson
      爱德华·霍尔克罗夫特 Edward Holcroft
      尼古拉斯·班克斯 Nicholas Banks

◎资源介绍

  哈里(科林·费斯 Colin Firth 饰)是英国秘密特工组织金士曼中的一员,某次行动中,他的战友不幸牺牲,哈里将一枚徽章和一个电话号码交给了战友年幼的小儿子艾格西(亚历克斯·尼科洛夫 Alex Nikolov 饰),叮嘱他将来如果遇到了什么麻烦可以拨打这个号码,然而,这样的机会只能使用一次。
  一晃眼十七年过去,破碎的家庭让艾格西(塔伦·埃格顿 Taron Egerton 饰)成长为了一个整日无所事事的小混混,某日,因为违反交通规则而遭到逮捕的艾格西使用了手中珍贵的号码,赶来的哈里在艾格西玩世不恭的外表之下发现了他善良的本质和极高的天赋,于是,哈里决定将艾格西培养成为新一代金士曼,他们需要共同面对的是强大而又邪恶的亿万富翁瓦伦丁(塞缪尔·杰克逊 Samuel L. Jackson 饰)。

◎获奖情况

  第39届日本电影学院奖  (2016)
  最佳外语片(提名)

  第18届美国服装设计工会奖  (2016)
  现代题材电影最佳服装设计(提名)

  第17届美国青少年选择奖  (2015)
  最佳动作片(提名)
  最佳突破表演电影新星(提名) 塔伦·埃格顿

  第6届豆瓣电影鑫像奖  (2016)
  鑫豆单元 最佳影片(外语)(提名)
  鑫豆单元 最佳导演(外语)(提名) 马修·沃恩
  鑫豆单元 最佳男演员(外语)(提名) 科林·费尔斯
  鑫豆单元 最佳喜剧片
  鑫豆单元 最佳科幻/动作片(提名)
  鑫豆单元 最佳配乐(提名)

  第2届豆瓣电影年度榜单  (2015)
  评分最高的外语电影(提名)
  最受关注的院线电影(提名)
  评分最高的欧洲电影
  3月最受关注电影


Video
ID                                       : 1
Format                                   : HEVC
Format/Info                              : High Efficiency Video Coding
Format profile                           : Main 10@L5.1@High
Codec ID                                 : V_MPEGH/ISO/HEVC
Duration                                 : 2 h 8 min
Bit rate                                 : 14.1 Mb/s
Width                                    : 3 840 pixels
Height                                   : 1 608 pixels
Display aspect ratio                     : 2.40:1
Frame rate mode                          : Constant
Frame rate                               : 23.976 (24000/1001) FPS
Color space                              : YUV
Chroma subsampling                       : 4:2:0 (Type 2)
Bit depth                                : 10 bits
Bits/(Pixel*Frame)                       : 0.095
Stream size                              : 12.6 GiB (71%)
Title                                    : Kingsman.The.Secret.Service.2014.2160p.BluRay.x265.10bit.HDR.DTS-HD.MA.7.1-SWTYBLZ
Writing library                          : x265 2.5b4a5bcfe29c7:[Windows][GCC 4.9.3][64 bit] 10bit
Encoding settings                        : cpuid=1173503 / frame-threads=16 / numa-pools=24,24,24,24 / wpp / no-pmode / no-pme / no-psnr / no-ssim / log-level=2 / input-csp=1 / input-res=3840x1608 / interlace=0 / total-frames=0 / level-idc=51 / high-tier=1 / uhd-bd=0 / ref=3 / no-allow-non-conformance / repeat-headers / annexb / aud / hrd / info / hash=0 / no-temporal-layers / no-open-gop / min-keyint=1 / keyint=24 / bframes=4 / b-adapt=2 / b-pyramid / bframe-bias=0 / rc-lookahead=25 / lookahead-slices=4 / scenecut=40 / no-intra-refresh / ctu=64 / min-cu-size=8 / no-rect / no-amp / max-tu-size=32 / tu-inter-depth=1 / tu-intra-depth=1 / limit-tu=0 / rdoq-level=0 / dynamic-rd=0.00 / no-ssim-rd / signhide / no-tskip / nr-intra=0 / nr-inter=0 / no-constrained-intra / strong-intra-smoothing / max-merge=2 / limit-refs=3 / no-limit-modes / me=1 / subme=2 / merange=57 / temporal-mvp / weightp / no-weightb / no-analyze-src-pics / deblock=0:0 / no-sao / no-sao-non-deblock / rd=3 / no-early-skip / rskip / no-fast-intra / no-tskip-fast / no-cu-lossless / no-b-intra / rdpenalty=0 / psy-rd=2.00 / psy-rdoq=0.00 / no-rd-refine / analysis-reuse-mode=0 / no-lossless / cbqpoffs=0 / crqpoffs=0 / rc=crf / crf=16.0 / qcomp=0.60 / qpstep=4 / stats-write=0 / stats-read=0 / vbv-maxrate=160000 / vbv-bufsize=160000 / vbv-init=0.9 / crf-max=0.0 / crf-min=0.0 / ipratio=1.40 / pbratio=1.30 / aq-mode=1 / aq-strength=1.00 / cutree / zone-count=0 / no-strict-cbr / qg-size=32 / no-rc-grain / qpmax=69 / qpmin=0 / no-const-vbv / sar=1 / overscan=0 / videoformat=5 / range=0 / colorprim=9 / transfer=16 / colormatrix=9 / chromaloc=1 / chromaloc-top=2 / chromaloc-bottom=2 / display-window=0 / master-display=G(13250,34500)B(7500,3000)R(34000,16000)WP(15635,16450)L(11000000,0) / max-cll=0,0 / min-luma=0 / max-luma=1023 / log2-max-poc-lsb=8 / vui-timing-info / vui-hrd-info / slices=1 / opt-qp-pps / opt-ref-list-length-pps / no-multi-pass-opt-rps / scenecut-bias=0.05 / no-opt-cu-delta-qp / no-aq-motion / hdr / hdr-opt / no-dhdr10-opt / analysis-reuse-level=5 / scale-factor=0 / refine-intra=0 / refine-inter=0 / refine-mv=0 / no-limit-sao / ctu-info=0
Default                                  : Yes
Forced                                   : No
Color range                              : Limited
Color primaries                          : BT.2020
Transfer characteristics                 : PQ
Matrix coefficients                      : BT.2020 non-constant
Mastering display color primaries        : R: x=0.680000 y=0.320000, G: x=0.265000 y=0.690000, B: x=0.150000 y=0.060000, White point: x=0.312700 y=0.329000
Mastering display luminance              : min: 0.0000 cd/m2, max: 1100.0000 cd/m2

Audio #1
ID                                       : 2
Format                                   : DTS
Format/Info                              : Digital Theater Systems
Format profile                           : MA / ES Matrix / Core
Codec ID                                 : A_DTS
Duration                                 : 2 h 8 min
Bit rate mode                            : Variable / Constant / Constant
Bit rate                                 : 4 935 kb/s / 1 509 kb/s / 1 509 kb/s
Channel(s)                               : 8 channels / 7 channels / 6 channels
Channel positions                        : Front: L C R, Side: L R, Back: L R, LFE / Front: L C R, Side: L R, Back: C, LFE / Front: L C R, Side: L R, LFE
Sampling rate                            : 48.0 kHz
Frame rate                               : 93.750 FPS (512 SPF)
Bit depth                                : 24 bits
Compression mode                         : Lossless / Lossy / Lossy
Stream size                              : 4.44 GiB (25%)
Title                                    : Kingsman.The.Secret.Service.2014.2160p.BluRay.x265.10bit.HDR.DTS-HD.MA.7.1-SWTYBLZ
Language                                 : English
Default                                  : Yes
Forced                                   : No

Audio #2
ID                                       : 3
Format                                   : AC-3
Format/Info                              : Audio Coding 3
Codec ID                                 : A_AC3
Duration                                 : 2 h 8 min
Bit rate mode                            : Constant
Bit rate                                 : 640 kb/s
Channel(s)                               : 6 channels
Channel positions                        : Front: L C R, Side: L R, LFE
Sampling rate                            : 48.0 kHz
Frame rate                               : 31.250 FPS (1536 SPF)
Bit depth                                : 16 bits
Compression mode                         : Lossy
Stream size                              : 589 MiB (3%)
Title                                    : Kingsman.The.Secret.Service.2014.2160p.BluRay.x265.10bit.HDR.DTS-HD.MA.7.1-SWTYBLZ
Language                                 : English
Service kind                             : Complete Main
Default                                  : No
Forced                                   : No

Text #1
ID                                       : 4
Format                                   : UTF-8
Codec ID                                 : S_TEXT/UTF8
Codec ID/Info                            : UTF-8 Plain Text
Duration                                 : 2 h 6 min
Bit rate                                 : 64 b/s
Count of elements                        : 1897
Stream size                              : 60.1 KiB (0%)
Title                                    : English-SRT
Language                                 : English
Default                                  : Yes
Forced                                   : No

Text #2
ID                                       : 5
Format                                   : PGS
Muxing mode                              : zlib
Codec ID                                 : S_HDMV/PGS
Codec ID/Info                            : Picture based subtitle format used on BDs/HD-DVDs
Duration                                 : 2 h 8 min
Bit rate                                 : 43.8 kb/s
Count of elements                        : 4245
Stream size                              : 40.3 MiB (0%)
Title                                    : English-PGS
Language                                 : English
Default                                  : No
Forced                                   : No

Text #3
ID                                       : 6
Format                                   : PGS
Muxing mode                              : zlib
Codec ID                                 : S_HDMV/PGS
Codec ID/Info                            : Picture based subtitle format used on BDs/HD-DVDs
Duration                                 : 2 h 8 min
Bit rate                                 : 33.1 kb/s
Count of elements                        : 3205
Stream size                              : 30.4 MiB (0%)
Title                                    : Spanish-PGS
Language                                 : Spanish
Default                                  : No
Forced                                   : No

Text #4
ID                                       : 7
Format                                   : PGS
Muxing mode                              : zlib
Codec ID                                 : S_HDMV/PGS
Codec ID/Info                            : Picture based subtitle format used on BDs/HD-DVDs
Duration                                 : 2 h 8 min
Bit rate                                 : 30.1 kb/s
Count of elements                        : 3207
Stream size                              : 27.7 MiB (0%)
Title                                    : French-PGS
Language                                 : French
Default                                  : No
Forced                                   : No

Text #5
ID                                       : 8
Format                                   : PGS
Muxing mode                              : zlib
Codec ID                                 : S_HDMV/PGS
Codec ID/Info                            : Picture based subtitle format used on BDs/HD-DVDs
Duration                                 : 2 h 8 min
Bit rate                                 : 32.5 kb/s
Count of elements                        : 2977
Stream size                              : 29.9 MiB (0%)
Title                                    : Danish-PGS
Language                                 : Danish
Default                                  : No
Forced                                   : No

Text #6
ID                                       : 9
Format                                   : PGS
Muxing mode                              : zlib
Codec ID                                 : S_HDMV/PGS
Codec ID/Info                            : Picture based subtitle format used on BDs/HD-DVDs
Duration                                 : 2 h 8 min
Bit rate                                 : 28.5 kb/s
Count of elements                        : 2781
Stream size                              : 26.3 MiB (0%)
Title                                    : Dutch-PGS
Language                                 : Dutch
Default                                  : No
Forced                                   : No

Text #7
ID                                       : 10
Format                                   : PGS
Muxing mode                              : zlib
Codec ID                                 : S_HDMV/PGS
Codec ID/Info                            : Picture based subtitle format used on BDs/HD-DVDs
Duration                                 : 2 h 8 min
Bit rate                                 : 28.7 kb/s
Count of elements                        : 3269
Stream size                              : 26.5 MiB (0%)
Title                                    : Finnish-PGS
Language                                 : Finnish
Default                                  : No
Forced                                   : No

Text #8
ID                                       : 11
Format                                   : PGS
Muxing mode                              : zlib
Codec ID                                 : S_HDMV/PGS
Codec ID/Info                            : Picture based subtitle format used on BDs/HD-DVDs
Duration                                 : 2 h 8 min
Bit rate                                 : 35.0 kb/s
Count of elements                        : 3413
Stream size                              : 32.2 MiB (0%)
Title                                    : German-PGS
Language                                 : German
Default                                  : No
Forced                                   : No

Text #9
ID                                       : 12
Format                                   : PGS
Muxing mode                              : zlib
Codec ID                                 : S_HDMV/PGS
Codec ID/Info                            : Picture based subtitle format used on BDs/HD-DVDs
Duration                                 : 2 h 8 min
Bit rate                                 : 32.5 kb/s
Count of elements                        : 3477
Stream size                              : 29.9 MiB (0%)
Title                                    : Italian-PGS
Language                                 : Italian
Default                                  : No
Forced                                   : No

Text #10
ID                                       : 13
Format                                   : PGS
Muxing mode                              : zlib
Codec ID                                 : S_HDMV/PGS
Codec ID/Info                            : Picture based subtitle format used on BDs/HD-DVDs
Duration                                 : 2 h 8 min
Bit rate                                 : 31.2 kb/s
Count of elements                        : 3457
Stream size                              : 28.8 MiB (0%)
Title                                    : Norwegian-PGS
Language                                 : Norwegian
Default                                  : No
Forced                                   : No

Text #11
ID                                       : 14
Format                                   : PGS
Muxing mode                              : zlib
Codec ID                                 : S_HDMV/PGS
Codec ID/Info                            : Picture based subtitle format used on BDs/HD-DVDs
Duration                                 : 2 h 8 min
Bit rate                                 : 33.0 kb/s
Count of elements                        : 3473
Stream size                              : 30.4 MiB (0%)
Title                                    : Swedish-PGS
Language                                 : Swedish
Default                                  : No
Forced                                   : No

Text #12
ID                                       : 15
Format                                   : PGS
Muxing mode                              : zlib
Codec ID                                 : S_HDMV/PGS
Codec ID/Info                            : Picture based subtitle format used on BDs/HD-DVDs
Duration                                 : 1 h 40 min
Bit rate                                 : 120 b/s
Count of elements                        : 34
Stream size                              : 88.7 KiB (0%)
Title                                    : English-FORCED-PGS
Language                                 : English
Default                                  : No
Forced                                   : No

Menu
00:00:00.000                             : en:Chapter 1
00:02:55.466                             : en:Chapter 2
00:04:50.665                             : en:Chapter 3
00:08:34.180                             : en:Chapter 4
00:11:49.875                             : en:Chapter 5
00:13:04.575                             : en:Chapter 6
00:15:57.998                             : en:Chapter 7
00:18:25.979                             : en:Chapter 8
00:23:48.051                             : en:Chapter 9
00:25:37.327                             : en:Chapter 10
00:29:53.750                             : en:Chapter 11
00:32:25.276                             : en:Chapter 12
00:33:47.900                             : en:Chapter 13
00:37:01.469                             : en:Chapter 14
00:38:49.618                             : en:Chapter 15
00:42:46.021                             : en:Chapter 16
00:45:03.867                             : en:Chapter 17
00:47:42.276                             : en:Chapter 18
00:53:47.557                             : en:Chapter 19
00:57:28.194                             : en:Chapter 20
01:03:29.514                             : en:Chapter 21
01:05:21.876                             : en:Chapter 22
01:10:27.932                             : en:Chapter 23
01:13:10.219                             : en:Chapter 24
01:15:01.955                             : en:Chapter 25
01:16:58.196                             : en:Chapter 26
01:23:03.812                             : en:Chapter 27
01:25:57.402                             : en:Chapter 28
01:31:21.309                             : en:Chapter 29
01:34:38.798                             : en:Chapter 30
01:36:27.948                             : en:Chapter 31
01:39:59.993                             : en:Chapter 32
01:44:07.866                             : en:Chapter 33
01:50:31.082                             : en:Chapter 34
01:58:21.219                             : en:Chapter 35
01:59:38.462                             : en:Chapter 36







种子百度云下载:
https://pan.baidu.com/s/1jIkYrLO 密码: tdk4

种子本地下载:
Kingsman.The.Secret.Service.2014.2160p.BluRay.x265.10bit.HDR.DTS-HD.MA.7.1-SWTYBLZ.torrent (90.23 KB, 下载次数: 30)
本人发布的资源如果发现失效,可以私信联系我,能修复的我尽量修复。

0

主题

661

帖子

281

积分

部将

Rank: 3Rank: 3

UID
446381
积分
281
冰币
3048
威望
0
发表于 2017-12-15 22:37:51 | 显示全部楼层

感谢分享精彩好电影!!!
回复 支持 反对

使用道具 举报

本版积分规则

手机版|小黑屋|冰冰网 ( 粤ICP备10024810号-1 )

GMT+8, 2018-5-21 15:06

Powered by www.discuz.net Discuz! X3.4

© 2001-2012 Comsenz Inc sitemap a67 s80


本站影视音乐资源来自互联网免费共享,仅供交流学习之用,版权归作者本人所有,如果侵犯了您的权益,请通知我们,邮箱地址mail@aapig.com
快速回复 返回顶部 返回列表