冰冰网

 找回密码
 开放注册,禁止乱回复
搜索
查看: 602|回复: 11

[欧美] 星际特工:千星之城 2017.2160p.BluRay.x265.10bit.HDR.DTS-SWTYBLZ 18GB

[复制链接]
 成长值: 150

7566

主题

7737

帖子

49万

积分

参谋

非凡-feifang

Rank: 8Rank: 8

UID
2
积分
495742
冰币
22309
威望
239

管理员

发表于 2017-12-29 20:44:29 | 显示全部楼层 |阅读模式 |        |


◎中文译名 星际特工:千星之城/瓦莱里安与一千颗行星的城市
◎片  名 Valérian and the City of a Thousand Planets
◎日  期 2017
◎产  地 法国
◎影片类型 动作/科幻/冒险
◎对  白 英语/法语
◎上映日期 2017-07-20(德国)/2017-07-26(法国)/2017-08-25(中国大陆)
◎豆瓣评分 7.0/10 from 89,392 users
◎豆瓣链接 https://movie.douban.com/subject/11502973/
◎影片时长 137分钟
◎影片导演 吕克·贝松 Luc Besson
◎主要演员 戴恩·德哈恩 Dane DeHaan
      卡拉·迪瓦伊 Cara Delevingne
      克里夫·欧文 Clive Owen
      蕾哈娜 Rihanna
      伊桑·霍克 Ethan Hawke
      赫比·汉考克 Herbie Hancock
      吴亦凡 Kris Wu
      萨姆·斯普卢尔  Sam Spruell
      阿兰·夏巴 Alain Chabat
      鲁特格尔·哈尔 Rutger Hauer
      泽维尔·吉亚诺利 Xavier Giannoli
      约翰·古德曼 John Goodman
      山姆·道格拉斯 Sam Douglas

◎资源介绍

  人类和众多外星种族共同生活在一个名为千星之城阿尔法的繁华星际大都市,数百年来,千星之城阿尔法成为各族群和平共处的美妙天堂,它繁荣昌盛。韦勒瑞恩(戴恩·德哈恩 Dane DeHaan 饰)和洛瑞琳(卡拉·迪瓦伊 Cara Delevingne 饰)被选择成为阿尔法的守护者,他们俩是警卫部的执行人员,被任命去拦截一种稀有物品的交易。这种稀有物品与一个本该在数十年前就消失的稀有族群存在神秘的关联。然后他们来到了巨大的千星之城阿尔法城,这时他们的指挥官Arun Filitt(克里夫·欧文饰)在指挥中心遭到绑架,这对搭档开始意识到手中物品的不寻常价值。二人追寻凶手,发现自己身陷一场正在发酵的星际事件中……


Video
ID                                       : 1
Format                                   : HEVC
Format/Info                              : High Efficiency Video Coding
Format profile                           : Main 10@L5.1@High
Codec ID                                 : V_MPEGH/ISO/HEVC
Duration                                 : 2 h 17 min
Bit rate                                 : 11.9 Mb/s
Width                                    : 3 840 pixels
Height                                   : 1 612 pixels
Display aspect ratio                     : 2.40:1
Frame rate mode                          : Constant
Frame rate                               : 23.976 (24000/1001) FPS
Color space                              : YUV
Chroma subsampling                       : 4:2:0 (Type 2)
Bit depth                                : 10 bits
Bits/(Pixel*Frame)                       : 0.080
Stream size                              : 11.4 GiB (61%)
Title                                    : Valerian.and.the.City.of.a.Thousand.Planets.2017.2160p.BluRay.x265.10bit.HDR.DTS-HD.MA.TrueHD.7.1.Atmos-SWTYBLZ
Writing library                          : x265 2.5b4a5bcfe29c7:[Windows][GCC 4.9.3][64 bit] 10bit
Encoding settings                        : cpuid=1173503 / frame-threads=16 / numa-pools=24,24,24,24 / wpp / no-pmode / no-pme / no-psnr / no-ssim / log-level=2 / input-csp=1 / input-res=3840x1612 / interlace=0 / total-frames=0 / level-idc=51 / high-tier=1 / uhd-bd=0 / ref=3 / no-allow-non-conformance / repeat-headers / annexb / aud / hrd / info / hash=0 / no-temporal-layers / no-open-gop / min-keyint=1 / keyint=24 / bframes=4 / b-adapt=2 / b-pyramid / bframe-bias=0 / rc-lookahead=25 / lookahead-slices=4 / scenecut=40 / no-intra-refresh / ctu=64 / min-cu-size=8 / no-rect / no-amp / max-tu-size=32 / tu-inter-depth=1 / tu-intra-depth=1 / limit-tu=0 / rdoq-level=0 / dynamic-rd=0.00 / no-ssim-rd / signhide / no-tskip / nr-intra=0 / nr-inter=0 / no-constrained-intra / strong-intra-smoothing / max-merge=2 / limit-refs=3 / no-limit-modes / me=1 / subme=2 / merange=57 / temporal-mvp / weightp / no-weightb / no-analyze-src-pics / deblock=0:0 / no-sao / no-sao-non-deblock / rd=3 / no-early-skip / rskip / no-fast-intra / no-tskip-fast / no-cu-lossless / no-b-intra / rdpenalty=0 / psy-rd=2.00 / psy-rdoq=0.00 / no-rd-refine / analysis-reuse-mode=0 / no-lossless / cbqpoffs=0 / crqpoffs=0 / rc=crf / crf=16.0 / qcomp=0.60 / qpstep=4 / stats-write=0 / stats-read=0 / vbv-maxrate=160000 / vbv-bufsize=160000 / vbv-init=0.9 / crf-max=0.0 / crf-min=0.0 / ipratio=1.40 / pbratio=1.30 / aq-mode=1 / aq-strength=1.00 / cutree / zone-count=0 / no-strict-cbr / qg-size=32 / no-rc-grain / qpmax=69 / qpmin=0 / no-const-vbv / sar=1 / overscan=0 / videoformat=5 / range=0 / colorprim=9 / transfer=16 / colormatrix=9 / chromaloc=1 / chromaloc-top=2 / chromaloc-bottom=2 / display-window=0 / master-display=G(13250,34500)B(7500,3000)R(34000,16000)WP(15635,16450)L(40000000,50) / max-cll=0,0 / min-luma=0 / max-luma=1023 / log2-max-poc-lsb=8 / vui-timing-info / vui-hrd-info / slices=1 / opt-qp-pps / opt-ref-list-length-pps / no-multi-pass-opt-rps / scenecut-bias=0.05 / no-opt-cu-delta-qp / no-aq-motion / hdr / hdr-opt / no-dhdr10-opt / analysis-reuse-level=5 / scale-factor=0 / refine-intra=0 / refine-inter=0 / refine-mv=0 / no-limit-sao / ctu-info=0
Default                                  : Yes
Forced                                   : No
Color range                              : Limited
Color primaries                          : BT.2020
Transfer characteristics                 : PQ
Matrix coefficients                      : BT.2020 non-constant
Mastering display color primaries        : Display P3
Mastering display luminance              : min: 0.0050 cd/m2, max: 4000 cd/m2

Audio #1
ID                                       : 2
Format                                   : TrueHD
Format profile                           : TrueHD+Atmos / TrueHD
Codec ID                                 : A_TRUEHD
Duration                                 : 2 h 17 min
Bit rate mode                            : Variable
Bit rate                                 : 3 098 kb/s
Maximum bit rate                         : 4 347 kb/s
Channel(s)                               : Object Based / 8 channels
Channel positions                        : Object Based / Front: L C R, Side: L R, Back: L R, LFE
Sampling rate                            :  / 48.0 kHz
Frame rate                               : 1 200.000 FPS (40 SPF)
Compression mode                         : Lossless
Stream size                              : 2.97 GiB (16%)
Title                                    : Valerian.and.the.City.of.a.Thousand.Planets.2017.2160p.BluRay.x265.10bit.HDR.DTS-HD.MA.TrueHD.7.1.Atmos-SWTYBLZ
Language                                 : English
Default                                  : Yes
Forced                                   : No

Audio #2
ID                                       : 3
Format                                   : DTS
Format/Info                              : Digital Theater Systems
Format profile                           : MA / Core
Codec ID                                 : A_DTS
Duration                                 : 2 h 17 min
Bit rate mode                            : Variable / Constant
Bit rate                                 : 3 642 kb/s / 1 509 kb/s
Channel(s)                               : 8 channels / 6 channels
Channel positions                        : Front: L C R, Side: L R, Back: L R, LFE / Front: L C R, Side: L R, LFE
Sampling rate                            : 48.0 kHz
Frame rate                               : 93.750 FPS (512 SPF)
Bit depth                                : 24 bits
Compression mode                         : Lossless / Lossy
Stream size                              : 3.50 GiB (19%)
Title                                    : Valerian.and.the.City.of.a.Thousand.Planets.2017.2160p.BluRay.x265.10bit.HDR.DTS-HD.MA.TrueHD.7.1.Atmos-SWTYBLZ
Language                                 : English
Default                                  : No
Forced                                   : No

Audio #3
ID                                       : 4
Format                                   : AC-3
Format/Info                              : Audio Coding 3
Codec ID                                 : A_AC3
Duration                                 : 2 h 17 min
Bit rate mode                            : Constant
Bit rate                                 : 640 kb/s
Channel(s)                               : 6 channels
Channel positions                        : Front: L C R, Side: L R, LFE
Sampling rate                            : 48.0 kHz
Frame rate                               : 31.250 FPS (1536 SPF)
Bit depth                                : 16 bits
Compression mode                         : Lossy
Stream size                              : 629 MiB (3%)
Title                                    : Valerian.and.the.City.of.a.Thousand.Planets.2017.2160p.BluRay.x265.10bit.HDR.DTS-HD.MA.TrueHD.7.1.Atmos-SWTYBLZ
Language                                 : English
Service kind                             : Complete Main
Default                                  : No
Forced                                   : No

Text #1
ID                                       : 5
Format                                   : UTF-8
Codec ID                                 : S_TEXT/UTF8
Codec ID/Info                            : UTF-8 Plain Text
Duration                                 : 2 h 13 min
Bit rate                                 : 56 b/s
Count of elements                        : 1630
Stream size                              : 55.0 KiB (0%)
Title                                    : English-SRT
Language                                 : English
Default                                  : Yes
Forced                                   : No

Text #2
ID                                       : 6
Format                                   : PGS
Muxing mode                              : zlib
Codec ID                                 : S_HDMV/PGS
Codec ID/Info                            : Picture based subtitle format used on BDs/HD-DVDs
Duration                                 : 2 h 8 min
Bit rate                                 : 31.1 kb/s
Count of elements                        : 4170
Stream size                              : 28.7 MiB (0%)
Title                                    : English-PGS
Language                                 : English
Default                                  : No
Forced                                   : No

Text #3
ID                                       : 7
Format                                   : PGS
Muxing mode                              : zlib
Codec ID                                 : S_HDMV/PGS
Codec ID/Info                            : Picture based subtitle format used on BDs/HD-DVDs
Duration                                 : 3 min 43 s
Bit rate                                 : 2 105 b/s
Count of elements                        : 10
Stream size                              : 57.4 KiB (0%)
Title                                    : English-FORCED-PGS
Language                                 : English
Default                                  : No
Forced                                   : No

Text #4
ID                                       : 8
Format                                   : PGS
Muxing mode                              : zlib
Codec ID                                 : S_HDMV/PGS
Codec ID/Info                            : Picture based subtitle format used on BDs/HD-DVDs
Duration                                 : 2 h 12 min
Bit rate                                 : 24.8 kb/s
Count of elements                        : 2988
Stream size                              : 23.5 MiB (0%)
Title                                    : German-PGS
Language                                 : German
Default                                  : No
Forced                                   : No

Menu
00:00:00.000                             : en:Chapter 1
00:11:12.213                             : en:Chapter 2
00:20:10.500                             : en:Chapter 3
00:30:38.336                             : en:Chapter 4
00:41:21.562                             : en:Chapter 5
00:51:37.344                             : en:Chapter 6
01:01:54.919                             : en:Chapter 7
01:10:50.996                             : en:Chapter 8
01:20:27.489                             : en:Chapter 9
01:34:23.741                             : en:Chapter 10
01:44:35.102                             : en:Chapter 11
01:57:01.723                             : en:Chapter 12
02:06:18.195                             : en:Chapter 13






游客,如果您要查看本帖隐藏内容请回复,   如果您想享受免回复免冰币无广告权限→→请捐助论坛

本人发布的资源如果发现失效,可以私信联系我,能修复的我尽量修复。

0

主题

178

帖子

71

积分

小将

Rank: 2

UID
544174
积分
71
冰币
736
威望
0
发表于 2018-1-7 20:35:30 | 显示全部楼层
非常感谢楼主
回复 支持 反对

使用道具 举报

2

主题

517

帖子

256

积分

部将

Rank: 3Rank: 3

UID
234030
积分
256
冰币
2756
威望
0
发表于 2018-1-8 09:14:42 | 显示全部楼层

非常感谢楼主
回复 支持 反对

使用道具 举报

0

主题

57

帖子

-20

积分

民兵

UID
444202
积分
-20
冰币
-245
威望
0
发表于 2018-1-11 10:13:19 | 显示全部楼层
zdzddzdzdzdzd
回复 支持 反对

使用道具 举报

1

主题

232

帖子

114

积分

中将

Rank: 2

UID
395652
积分
114
冰币
1149
威望
0
发表于 2018-2-21 11:31:24 | 显示全部楼层
感谢老板分享~~
回复 支持 反对

使用道具 举报

0

主题

463

帖子

170

积分

中将

Rank: 2

UID
35133
积分
170
冰币
1745
威望
0
发表于 2018-2-24 21:10:16 | 显示全部楼层
有中文字幕吗???
回复 支持 反对

使用道具 举报

0

主题

47

帖子

-13

积分

民兵

UID
543677
积分
-13
冰币
-152
威望
0
发表于 2018-3-7 01:58:38 | 显示全部楼层
顶一个,一直想看这部电影
回复 支持 反对

使用道具 举报

0

主题

101

帖子

28

积分

大兵

Rank: 1

UID
525474
积分
28
冰币
290
威望
0
发表于 2018-3-15 21:43:56 | 显示全部楼层
        电影院没去看
回复 支持 反对

使用道具 举报

本版积分规则

手机版|小黑屋|冰冰网 ( 粤ICP备10024810号-1 )

GMT+8, 2018-5-24 20:10

Powered by www.discuz.net Discuz! X3.4

© 2001-2012 Comsenz Inc sitemap a67 s80


本站影视音乐资源来自互联网免费共享,仅供交流学习之用,版权归作者本人所有,如果侵犯了您的权益,请通知我们,邮箱地址mail@aapig.com
快速回复 返回顶部 返回列表