冰冰网

 找回密码
 开放注册,禁止乱回复
搜索
查看: 445|回复: 11

[欧美] 我是传奇【自带中字】 I.Am.Legend.2007.2160p.BluRay.x264.8bit.SDR.DTS-SWTYBLZ 28GB

[复制链接]
 成长值: 130

7541

主题

7712

帖子

49万

积分

参谋

非凡-feifang

Rank: 8Rank: 8

UID
2
积分
495727
冰币
22234
威望
239

管理员

发表于 2018-1-12 21:15:02 | 显示全部楼层 |阅读模式 |        |


◎中文译名 我是传奇/末日传奇/魔间传奇
◎片  名 I Am Legend
◎日  期 2007
◎产  地 美国
◎影片类型 剧情/科幻/恐怖
◎对  白 英语
◎上映日期 2007-12-14(美国)
◎IMDb评分  7.2/10 from 589,715 users
◎IMDB链接  www.aapig.com.cn www.imdb.com/title/tt0480249/
◎豆瓣评分 7.9/10 from 195,385 users
◎豆瓣链接 https://movie.douban.com/subject/1820156/
◎影片时长 101分钟/104分钟
◎影片导演 弗朗西斯·劳伦斯 Francis Lawrence
◎主要演员 威尔·史密斯 Will Smith
      艾莉丝·布拉加 Alice Braga
      Charlie Tahan
      达什·米霍克 Dash Mihok
      莎莉·理查德森 Salli Richardson

◎资源介绍

  2012年,人类被不知名病毒感染,纽约成为一座空城。Robert Neville(Will Smith 饰)是为军方服务的科学家,也是对病毒有免疫力的幸存者。白天,他带着狗Sam在街道上寻找食物,用广播寻找幸存者,在实验室里研究治愈病毒的方法;晚上,他只能躲在屋子里,因为那些感染病毒而没有死亡的人们,成为了“夜魔”只能夜晚出来活动,丧失理智,会攻击所有的人。
  某天,Sam也感染病毒死去,Robert Neville陷入了前所未有的孤独。当他准备和“夜魔”们同归于尽的时候,另外一个幸存者Anna(Alice Braga 饰)救了他。Anna相信山上的隔离区还有幸存者,但是固执的Robert Neville却坚持守在纽约。
  又一个晚上,“夜魔”攻击Robert Neville的住所,此时他的研究已经获得成功,但是只有坚持到天亮,人类才能得以延存。

◎获奖情况

  第17届MTV电影奖  (2008)
  MTV电影奖 年度电影(提名)
  MTV电影奖 最佳男演员 威尔·史密斯


Video
ID                                       : 1
Format                                   : AVC
Format/Info                              : Advanced Video Codec
Format profile                           : High@L5.1
Format settings                          : CABAC / 5 Ref Frames
Format settings, CABAC                   : Yes
Format settings, RefFrames               : 5 frames
Codec ID                                 : V_MPEG4/ISO/AVC
Duration                                 : 1 h 40 min
Bit rate                                 : 35.1 Mb/s
Width                                    : 3 840 pixels
Height                                   : 1 600 pixels
Display aspect ratio                     : 2.40:1
Frame rate mode                          : Constant
Frame rate                               : 23.976 (24000/1001) FPS
Color space                              : YUV
Chroma subsampling                       : 4:2:0
Bit depth                                : 8 bits
Scan type                                : Progressive
Bits/(Pixel*Frame)                       : 0.239
Stream size                              : 24.7 GiB (89%)
Title                                    : I.Am.Legend.2007.2160p.BluRay.x264.8bit.SDR.DTS-HD.MA.5.1-SWTYBLZ
Writing library                          : x264 core 148 r2748 97eaef2
Encoding settings                        : cabac=1 / ref=5 / deblock=1:-1:-1 / analyse=0x3:0x113 / me=umh / subme=10 / psy=1 / psy_rd=1.00:0.15 / mixed_ref=1 / me_range=48 / chroma_me=1 / trellis=2 / 8x8dct=1 / cqm=0 / deadzone=21,11 / fast_pskip=1 / chroma_qp_offset=-3 / threads=50 / lookahead_threads=4 / sliced_threads=0 / nr=0 / decimate=0 / interlaced=0 / bluray_compat=0 / constrained_intra=0 / bframes=3 / b_pyramid=2 / b_adapt=2 / b_bias=0 / direct=3 / weightb=1 / open_gop=0 / weightp=2 / keyint=250 / keyint_min=23 / scenecut=40 / intra_refresh=0 / rc_lookahead=50 / rc=crf / mbtree=1 / crf=18.0 / qcomp=0.60 / qpmin=0 / qpmax=69 / qpstep=4 / ip_ratio=1.40 / aq=1:1.00
Language                                 : English
Default                                  : Yes
Forced                                   : No

Audio #1
ID                                       : 2
Format                                   : DTS
Format/Info                              : Digital Theater Systems
Format profile                           : MA / Core
Codec ID                                 : A_DTS
Duration                                 : 1 h 40 min
Bit rate mode                            : Variable / Constant
Bit rate                                 : 3 623 kb/s / 1 509 kb/s
Channel(s)                               : 6 channels
Channel positions                        : Front: L C R, Side: L R, LFE
Sampling rate                            : 48.0 kHz
Frame rate                               : 93.750 FPS (512 SPF)
Bit depth                                : 24 bits
Compression mode                         : Lossless / Lossy
Delay relative to video                  : 5 ms
Stream size                              : 2.54 GiB (9%)
Title                                    : I.Am.Legend.2007.2160p.BluRay.x264.8bit.SDR.DTS-HD.MA.5.1-SWTYBLZ
Language                                 : English
Default                                  : Yes
Forced                                   : No

Audio #2
ID                                       : 3
Format                                   : AC-3
Format/Info                              : Audio Coding 3
Codec ID                                 : A_AC3
Duration                                 : 1 h 40 min
Bit rate mode                            : Constant
Bit rate                                 : 640 kb/s
Channel(s)                               : 6 channels
Channel positions                        : Front: L C R, Side: L R, LFE
Sampling rate                            : 48.0 kHz
Frame rate                               : 31.250 FPS (1536 SPF)
Bit depth                                : 16 bits
Compression mode                         : Lossy
Stream size                              : 460 MiB (2%)
Title                                    : I.Am.Legend.2007.2160p.BluRay.x264.8bit.SDR.DTS-HD.MA.5.1-SWTYBLZ
Language                                 : English
Service kind                             : Complete Main
Default                                  : No
Forced                                   : No

Text #1
ID                                       : 4
Format                                   : UTF-8
Codec ID                                 : S_TEXT/UTF8
Codec ID/Info                            : UTF-8 Plain Text
Duration                                 : 1 h 40 min
Bit rate                                 : 30 b/s
Count of elements                        : 658
Stream size                              : 22.6 KiB (0%)
Title                                    : English-SRT
Language                                 : English
Default                                  : Yes
Forced                                   : No

Text #2
ID                                       : 5
Format                                   : PGS
Muxing mode                              : zlib
Codec ID                                 : S_HDMV/PGS
Codec ID/Info                            : Picture based subtitle format used on BDs/HD-DVDs
Duration                                 : 1 h 40 min
Bit rate                                 : 19.3 kb/s
Count of elements                        : 1494
Stream size                              : 13.8 MiB (0%)
Title                                    : English-PGS
Language                                 : English
Default                                  : No
Forced                                   : No

Text #3
ID                                       : 6
Format                                   : PGS
Muxing mode                              : zlib
Codec ID                                 : S_HDMV/PGS
Codec ID/Info                            : Picture based subtitle format used on BDs/HD-DVDs
Duration                                 : 1 h 40 min
Bit rate                                 : 12.0 kb/s
Count of elements                        : 1096
Stream size                              : 8.63 MiB (0%)
Title                                    : French-PGS
Language                                 : French
Default                                  : No
Forced                                   : No

Text #4
ID                                       : 7
Format                                   : PGS
Muxing mode                              : zlib
Codec ID                                 : S_HDMV/PGS
Codec ID/Info                            : Picture based subtitle format used on BDs/HD-DVDs
Duration                                 : 1 h 40 min
Bit rate                                 : 21.4 kb/s
Count of elements                        : 1526
Stream size                              : 15.3 MiB (0%)
Title                                    : German-PGS
Language                                 : German
Default                                  : No
Forced                                   : No

Text #5
ID                                       : 8
Format                                   : PGS
Muxing mode                              : zlib
Codec ID                                 : S_HDMV/PGS
Codec ID/Info                            : Picture based subtitle format used on BDs/HD-DVDs
Duration                                 : 1 h 40 min
Bit rate                                 : 18.7 kb/s
Count of elements                        : 1440
Stream size                              : 13.4 MiB (0%)
Title                                    : Italian-PGS
Language                                 : Italian
Default                                  : No
Forced                                   : No

Text #6
ID                                       : 9
Format                                   : PGS
Muxing mode                              : zlib
Codec ID                                 : S_HDMV/PGS
Codec ID/Info                            : Picture based subtitle format used on BDs/HD-DVDs
Duration                                 : 1 h 40 min
Bit rate                                 : 15.8 kb/s
Count of elements                        : 1312
Stream size                              : 11.4 MiB (0%)
Title                                    : Spanish-PGS
Language                                 : Spanish
Default                                  : No
Forced                                   : No

Text #7
ID                                       : 10
Format                                   : PGS
Muxing mode                              : zlib
Codec ID                                 : S_HDMV/PGS
Codec ID/Info                            : Picture based subtitle format used on BDs/HD-DVDs
Duration                                 : 1 h 40 min
Bit rate                                 : 12.3 kb/s
Count of elements                        : 1004
Stream size                              : 8.83 MiB (0%)
Title                                    : Dutch-PGS
Language                                 : Dutch
Default                                  : No
Forced                                   : No

Text #8
ID                                       : 11
Format                                   : PGS
Muxing mode                              : zlib
Codec ID                                 : S_HDMV/PGS
Codec ID/Info                            : Picture based subtitle format used on BDs/HD-DVDs
Duration                                 : 1 h 40 min
Bit rate                                 : 14.8 kb/s
Count of elements                        : 1316
Stream size                              : 10.6 MiB (0%)
Title                                    : Chinese-PGS
Language                                 : Chinese
Default                                  : No
Forced                                   : No

Text #9
ID                                       : 12
Format                                   : PGS
Muxing mode                              : zlib
Codec ID                                 : S_HDMV/PGS
Codec ID/Info                            : Picture based subtitle format used on BDs/HD-DVDs
Duration                                 : 1 h 40 min
Bit rate                                 : 14.6 kb/s
Count of elements                        : 1340
Stream size                              : 10.5 MiB (0%)
Title                                    : Chinese-PGS
Language                                 : Chinese
Default                                  : No
Forced                                   : No

Text #10
ID                                       : 13
Format                                   : PGS
Muxing mode                              : zlib
Codec ID                                 : S_HDMV/PGS
Codec ID/Info                            : Picture based subtitle format used on BDs/HD-DVDs
Duration                                 : 1 h 39 min
Bit rate                                 : 9 052 b/s
Count of elements                        : 1180
Stream size                              : 6.44 MiB (0%)
Title                                    : Korean-PGS
Language                                 : Korean
Default                                  : No
Forced                                   : No

Text #11
ID                                       : 14
Format                                   : PGS
Muxing mode                              : zlib
Codec ID                                 : S_HDMV/PGS
Codec ID/Info                            : Picture based subtitle format used on BDs/HD-DVDs
Duration                                 : 1 h 40 min
Bit rate                                 : 16.3 kb/s
Count of elements                        : 1316
Stream size                              : 11.7 MiB (0%)
Title                                    : Spanish-PGS
Language                                 : Spanish
Default                                  : No
Forced                                   : No

Text #12
ID                                       : 15
Format                                   : PGS
Muxing mode                              : zlib
Codec ID                                 : S_HDMV/PGS
Codec ID/Info                            : Picture based subtitle format used on BDs/HD-DVDs
Duration                                 : 1 h 40 min
Bit rate                                 : 16.4 kb/s
Count of elements                        : 1276
Stream size                              : 11.8 MiB (0%)
Title                                    : Portuguese-PGS
Language                                 : Portuguese
Default                                  : No
Forced                                   : No

Text #13
ID                                       : 16
Format                                   : PGS
Muxing mode                              : zlib
Codec ID                                 : S_HDMV/PGS
Codec ID/Info                            : Picture based subtitle format used on BDs/HD-DVDs
Duration                                 : 1 h 40 min
Bit rate                                 : 8 959 b/s
Count of elements                        : 1330
Stream size                              : 6.43 MiB (0%)
Title                                    : Arabic-PGS
Language                                 : Arabic
Default                                  : No
Forced                                   : No

Text #14
ID                                       : 17
Format                                   : PGS
Muxing mode                              : zlib
Codec ID                                 : S_HDMV/PGS
Codec ID/Info                            : Picture based subtitle format used on BDs/HD-DVDs
Duration                                 : 1 h 40 min
Bit rate                                 : 12.1 kb/s
Count of elements                        : 1184
Stream size                              : 8.68 MiB (0%)
Title                                    : Czech-PGS
Language                                 : Czech
Default                                  : No
Forced                                   : No

Text #15
ID                                       : 18
Format                                   : PGS
Muxing mode                              : zlib
Codec ID                                 : S_HDMV/PGS
Codec ID/Info                            : Picture based subtitle format used on BDs/HD-DVDs
Duration                                 : 1 h 39 min
Bit rate                                 : 12.1 kb/s
Count of elements                        : 882
Stream size                              : 8.59 MiB (0%)
Title                                    : Danish-PGS
Language                                 : Danish
Default                                  : No
Forced                                   : No

Text #16
ID                                       : 19
Format                                   : PGS
Muxing mode                              : zlib
Codec ID                                 : S_HDMV/PGS
Codec ID/Info                            : Picture based subtitle format used on BDs/HD-DVDs
Duration                                 : 1 h 40 min
Bit rate                                 : 12.5 kb/s
Count of elements                        : 1008
Stream size                              : 8.98 MiB (0%)
Title                                    : Finnish-GPS
Language                                 : Finnish
Default                                  : No
Forced                                   : No

Text #17
ID                                       : 20
Format                                   : PGS
Muxing mode                              : zlib
Codec ID                                 : S_HDMV/PGS
Codec ID/Info                            : Picture based subtitle format used on BDs/HD-DVDs
Duration                                 : 1 h 40 min
Bit rate                                 : 13.7 kb/s
Count of elements                        : 1210
Stream size                              : 9.84 MiB (0%)
Title                                    : Hungarian-PGS
Language                                 : Hungarian
Default                                  : No
Forced                                   : No

Text #18
ID                                       : 21
Format                                   : PGS
Muxing mode                              : zlib
Codec ID                                 : S_HDMV/PGS
Codec ID/Info                            : Picture based subtitle format used on BDs/HD-DVDs
Duration                                 : 1 h 39 min
Bit rate                                 : 13.6 kb/s
Count of elements                        : 1120
Stream size                              : 9.67 MiB (0%)
Title                                    : Norwegian-PGS
Language                                 : Norwegian
Default                                  : No
Forced                                   : No

Text #19
ID                                       : 22
Format                                   : PGS
Muxing mode                              : zlib
Codec ID                                 : S_HDMV/PGS
Codec ID/Info                            : Picture based subtitle format used on BDs/HD-DVDs
Duration                                 : 1 h 40 min
Bit rate                                 : 15.5 kb/s
Count of elements                        : 1306
Stream size                              : 11.1 MiB (0%)
Title                                    : Polish_PGS
Language                                 : Polish
Default                                  : No
Forced                                   : No

Text #20
ID                                       : 23
Format                                   : PGS
Muxing mode                              : zlib
Codec ID                                 : S_HDMV/PGS
Codec ID/Info                            : Picture based subtitle format used on BDs/HD-DVDs
Duration                                 : 1 h 40 min
Bit rate                                 : 16.2 kb/s
Count of elements                        : 1292
Stream size                              : 11.6 MiB (0%)
Title                                    : Portuguese-PGS
Language                                 : Portuguese
Default                                  : No
Forced                                   : No

Text #21
ID                                       : 24
Format                                   : PGS
Muxing mode                              : zlib
Codec ID                                 : S_HDMV/PGS
Codec ID/Info                            : Picture based subtitle format used on BDs/HD-DVDs
Duration                                 : 1 h 40 min
Bit rate                                 : 18.2 kb/s
Count of elements                        : 1388
Stream size                              : 13.1 MiB (0%)
Title                                    : Russian-PGS
Language                                 : Russian
Default                                  : No
Forced                                   : No

Text #22
ID                                       : 25
Format                                   : PGS
Muxing mode                              : zlib
Codec ID                                 : S_HDMV/PGS
Codec ID/Info                            : Picture based subtitle format used on BDs/HD-DVDs
Duration                                 : 1 h 40 min
Bit rate                                 : 13.3 kb/s
Count of elements                        : 976
Stream size                              : 9.57 MiB (0%)
Title                                    : Swedish-PGS
Language                                 : Swedish
Default                                  : No
Forced                                   : No

Text #23
ID                                       : 26
Format                                   : PGS
Muxing mode                              : zlib
Codec ID                                 : S_HDMV/PGS
Codec ID/Info                            : Picture based subtitle format used on BDs/HD-DVDs
Duration                                 : 1 h 33 min
Bit rate                                 : 13.1 kb/s
Count of elements                        : 1894
Stream size                              : 8.80 MiB (0%)
Title                                    : Japanese-PGS
Language                                 : Japanese
Default                                  : No
Forced                                   : No

Menu
00:00:00.000                             : en:Chapter 1
00:02:14.134                             : en:Chapter 2
00:07:56.476                             : en:Chapter 3
00:12:07.393                             : en:Chapter 4
00:15:15.706                             : en:Chapter 5
00:18:20.099                             : en:Chapter 6
00:23:22.526                             : en:Chapter 7
00:26:42.183                             : en:Chapter 8
00:31:49.282                             : en:Chapter 9
00:34:15.595                             : en:Chapter 10
00:37:45.805                             : en:Chapter 11
00:39:16.145                             : en:Chapter 12
00:44:06.644                             : en:Chapter 13
00:48:50.928                             : en:Chapter 14
00:53:12.731                             : en:Chapter 15
00:56:54.786                             : en:Chapter 16
00:59:41.452                             : en:Chapter 17
01:02:41.090                             : en:Chapter 18
01:04:30.658                             : en:Chapter 19
01:09:18.487                             : en:Chapter 20
01:11:21.902                             : en:Chapter 21
01:17:38.779                             : en:Chapter 22
01:20:14.935                             : en:Chapter 23
01:24:10.920                             : en:Chapter 24
01:27:59.691                             : en:Chapter 25
01:29:48.049                             : en:Chapter 26
01:31:48.002                             : en:Chapter 27








游客,如果您要查看本帖隐藏内容请回复,   如果您想享受免回复免冰币无广告权限→→请捐助论坛
本人发布的资源如果发现失效,可以私信联系我,能修复的我尽量修复。

0

主题

377

帖子

85

积分

小将

Rank: 2

UID
544475
积分
85
冰币
914
威望
0
发表于 2018-1-22 11:46:57 | 显示全部楼层
享受生活每一天!
回复 支持 反对

使用道具 举报

0

主题

33

帖子

-24

积分

民兵

UID
534756
积分
-24
冰币
-265
威望
0
发表于 2018-2-1 20:29:58 | 显示全部楼层
谢谢楼主分享
回复 支持 反对

使用道具 举报

1

主题

534

帖子

105

积分

中将

Rank: 2

UID
109107
积分
105
冰币
1032
威望
0
发表于 2018-2-2 14:00:12 | 显示全部楼层
jind金典,又好看。
回复 支持 反对

使用道具 举报

1

主题

59

帖子

-13

积分

民兵

UID
412127
积分
-13
冰币
-177
威望
0
发表于 2018-2-6 12:30:25 来自手机 | 显示全部楼层
这不是假4k啊
回复 支持 反对

使用道具 举报

0

主题

125

帖子

38

积分

小将

Rank: 2

UID
443845
积分
38
冰币
395
威望
0
发表于 2018-2-17 03:19:33 | 显示全部楼层
多谢你的分享啊
回复 支持 反对

使用道具 举报

0

主题

77

帖子

11

积分

大兵

Rank: 1

UID
481452
积分
11
冰币
110
威望
0
发表于 2018-3-12 06:30:46 | 显示全部楼层
然而不是真4K.
回复 支持 反对

使用道具 举报

0

主题

179

帖子

33

积分

小将

Rank: 2

UID
550214
积分
33
冰币
354
威望
0
发表于 2018-3-13 17:03:12 | 显示全部楼层
我是传奇是一部经典的的电影,很期待4k的分辨率下是怎样的表现,感谢楼主无私的分享
回复 支持 反对

使用道具 举报

本版积分规则

手机版|小黑屋|冰冰网 ( 粤ICP备10024810号-1 )

GMT+8, 2018-5-22 10:20

Powered by www.discuz.net Discuz! X3.4

© 2001-2012 Comsenz Inc sitemap a67 s80


本站影视音乐资源来自互联网免费共享,仅供交流学习之用,版权归作者本人所有,如果侵犯了您的权益,请通知我们,邮箱地址mail@aapig.com
快速回复 返回顶部 返回列表