冰冰网

 找回密码
 开放注册,禁止乱回复
搜索
查看: 250|回复: 9

[欧美] 雷神3:诸神黄昏【自带中字】Thor.Ragnarok.2017.2160p.BluRay.x265.10bit.SDR.DTS-SWTYBLZ 36GB

[复制链接]
 成长值: 140

7552

主题

7723

帖子

49万

积分

参谋

非凡-feifang

Rank: 8Rank: 8

UID
2
积分
495736
冰币
22281
威望
239

管理员

发表于 2018-2-24 19:44:23 | 显示全部楼层 |阅读模式 |        |

◎中文译名 雷神3:诸神黄昏/雷神索尔3:诸神黄昏(台)/雷神奇侠3:诸神黄昏(港)/雷神3:诸神的黄昏
◎片  名 Thor: Ragnarok
◎日  期 2017
◎产  地 美国
◎影片类型 动作/奇幻/冒险
◎对  白 英语
◎上映日期 2017-10-24(英国)/2017-11-03(美国)/2017-11-03(中国大陆)
◎IMDb评分  8.0/10 from 235,579 users
◎IMDB链接  www.aapig.com.cn www.imdb.com/title/tt3501632/
◎豆瓣评分 7.5/10 from 146,161 users
◎豆瓣链接 https://movie.douban.com/subject/25821634/
◎影片时长 130分钟
◎影片导演 塔伊加·维迪提 Taika Waititi
◎主要演员 克里斯·海姆斯沃斯 Chris Hemsworth
      汤姆·希德勒斯顿 Tom Hiddleston
      凯特·布兰切特 Cate Blanchett
      伊德里斯·艾尔巴 Idris Elba
      杰夫·高布伦 Jeff Goldblum
      泰莎·汤普森 Tessa Thompson
      卡尔·厄本 Karl Urban
      马克·鲁弗洛 Mark Ruffalo
      安东尼·霍普金斯 Anthony Hopkins
      本尼迪克特·康伯巴奇 Benedict Cumberbatch
      塔伊加·维迪提 Taika Waititi
      瑞切尔·豪斯 Rachel House
      克兰西·布朗 Clancy Brown
      浅野忠信 Tadanobu Asano
      雷·史蒂文森 Ray Stevenson
      扎克瑞·莱维 Zachary Levi
      卢克·海姆斯沃斯 Luke Hemsworth
      马特·达蒙 Matt Damon
      山姆·尼尔 Sam Neill
      夏洛特·尼克道 Charlotte Nicdao
      斯坦·李 Stan Lee

◎资源介绍

  在“索科维亚战役”两年后,索尔(克里斯·海姆斯沃斯 饰)得知诸神黄昏的预言并希望全力阻止火焰巨人苏尔特尔毁灭阿斯加德。索尔与洛基(汤姆·希德勒斯顿 饰)在奇异博士(本尼迪克特·康伯巴奇 饰)的指引下找到了奥丁(安东尼·霍普金斯 饰)。奥丁向他们兄弟二人道出他们还有一位姐姐——“死亡女神”海拉(凯特·布兰切特 饰)。在一场战斗里雷神之锤被海拉所毁,索尔跌下彩虹桥而来到了萨卡星,成为阶下囚。失去了锤子的索尔被逼展开角斗士对决,而对手居然是自己的老战友绿巨人(马克·鲁弗洛 饰)。索尔必须与绿巨人、洛基等人并肩战斗,才能阻止海拉和即将到来的诸神黄昏。

◎获奖情况

  第16届美国视觉效果协会奖  (2018)
  最佳电影虚拟摄影(提名)
  最佳电影视觉效果合成(提名)

  第23届美国评论家选择电影奖  (2018)
  喜剧片最佳男主角(提名) 克里斯·海姆斯沃斯
  最佳动作片(提名)
  最佳视觉效果(提名)

  第4届豆瓣电影年度榜单  (2017)
  评分最高的科幻/动作片(提名)
  11月最受关注电影(提名)

  第3届豆瓣电影年度榜单  (2016)
  最值得期待的外语电影(提名)


Video
ID                                       : 1
Format                                   : HEVC
Format/Info                              : High Efficiency Video Coding
Format profile                           : Main 10@L5.1@High
Codec ID                                 : V_MPEGH/ISO/HEVC
Duration                                 : 2 h 10 min
Bit rate                                 : 31.4 Mb/s
Width                                    : 3 840 pixels
Height                                   : 1 608 pixels
Display aspect ratio                     : 2.40:1
Frame rate mode                          : Constant
Frame rate                               : 23.976 (24000/1001) FPS
Color space                              : YUV
Chroma subsampling                       : 4:2:0
Bit depth                                : 10 bits
Bits/(Pixel*Frame)                       : 0.212
Stream size                              : 28.6 GiB (79%)
Title                                    : Thor.Ragnarok.2017.2160p.BluRay.x265.10bit.SDR.DTS-HD.MA.TrueHD.7.1.Atmos-SWTYBLZ
Writing library                          : x265 2.5b4a5bcfe29c7:[Windows][GCC 4.9.3][64 bit] 10bit
Encoding settings                        : cpuid=1173503 / frame-threads=16 / numa-pools=24,24,24,24 / wpp / no-pmode / no-pme / no-psnr / no-ssim / log-level=2 / input-csp=1 / input-res=3840x1608 / interlace=0 / total-frames=0 / level-idc=51 / high-tier=1 / uhd-bd=0 / ref=3 / no-allow-non-conformance / repeat-headers / annexb / aud / hrd / info / hash=0 / no-temporal-layers / no-open-gop / min-keyint=1 / keyint=24 / bframes=4 / b-adapt=2 / b-pyramid / bframe-bias=0 / rc-lookahead=25 / lookahead-slices=4 / scenecut=40 / no-intra-refresh / ctu=64 / min-cu-size=8 / no-rect / no-amp / max-tu-size=32 / tu-inter-depth=1 / tu-intra-depth=1 / limit-tu=0 / rdoq-level=0 / dynamic-rd=0.00 / no-ssim-rd / signhide / no-tskip / nr-intra=0 / nr-inter=0 / no-constrained-intra / strong-intra-smoothing / max-merge=2 / limit-refs=3 / no-limit-modes / me=1 / subme=2 / merange=57 / temporal-mvp / weightp / no-weightb / no-analyze-src-pics / deblock=0:0 / no-sao / no-sao-non-deblock / rd=3 / no-early-skip / rskip / no-fast-intra / no-tskip-fast / no-cu-lossless / no-b-intra / rdpenalty=0 / psy-rd=2.00 / psy-rdoq=0.00 / no-rd-refine / analysis-reuse-mode=0 / no-lossless / cbqpoffs=0 / crqpoffs=0 / rc=crf / crf=16.0 / qcomp=0.60 / qpstep=4 / stats-write=0 / stats-read=0 / vbv-maxrate=160000 / vbv-bufsize=160000 / vbv-init=0.9 / crf-max=0.0 / crf-min=0.0 / ipratio=1.40 / pbratio=1.30 / aq-mode=1 / aq-strength=1.00 / cutree / zone-count=0 / no-strict-cbr / qg-size=32 / no-rc-grain / qpmax=69 / qpmin=0 / no-const-vbv / sar=1 / overscan=0 / videoformat=5 / range=0 / colorprim=2 / transfer=2 / colormatrix=2 / chromaloc=0 / display-window=0 / max-cll=0,0 / min-luma=0 / max-luma=1023 / log2-max-poc-lsb=8 / vui-timing-info / vui-hrd-info / slices=1 / opt-qp-pps / opt-ref-list-length-pps / no-multi-pass-opt-rps / scenecut-bias=0.05 / no-opt-cu-delta-qp / no-aq-motion / no-hdr / no-hdr-opt / no-dhdr10-opt / analysis-reuse-level=5 / scale-factor=0 / refine-intra=0 / refine-inter=0 / refine-mv=0 / no-limit-sao / ctu-info=0
Default                                  : Yes
Forced                                   : No

Audio #1
ID                                       : 2
Format                                   : TrueHD
Format profile                           : TrueHD+Atmos / TrueHD
Codec ID                                 : A_TRUEHD
Duration                                 : 2 h 10 min
Bit rate mode                            : Variable
Bit rate                                 : 4 051 kb/s
Maximum bit rate                         : 5 889 kb/s
Channel(s)                               : Object Based / 8 channels
Channel positions                        : Object Based / Front: L C R, Side: L R, Back: L R, LFE
Sampling rate                            :  / 48.0 kHz
Frame rate                               : 1 200.000 FPS (40 SPF)
Compression mode                         : Lossless
Delay relative to video                  : 32 ms
Stream size                              : 3.69 GiB (10%)
Title                                    : Thor.Ragnarok.2017.2160p.BluRay.x265.10bit.SDR.DTS-HD.MA.TrueHD.7.1.Atmos-SWTYBLZ
Language                                 : English
Default                                  : Yes
Forced                                   : No

Audio #2
ID                                       : 3
Format                                   : DTS
Format/Info                              : Digital Theater Systems
Format profile                           : MA / Core
Codec ID                                 : A_DTS
Duration                                 : 2 h 10 min
Bit rate mode                            : Variable / Constant
Bit rate                                 : 3 549 kb/s / 1 509 kb/s
Channel(s)                               : 8 channels / 6 channels
Channel positions                        : Front: L C R, Side: L R, Back: L R, LFE / Front: L C R, Side: L R, LFE
Sampling rate                            : 48.0 kHz
Frame rate                               : 93.750 FPS (512 SPF)
Bit depth                                : 24 bits
Compression mode                         : Lossless / Lossy
Stream size                              : 3.24 GiB (9%)
Title                                    : Thor.Ragnarok.2017.2160p.BluRay.x265.10bit.SDR.DTS-HD.MA.TrueHD.7.1.Atmos-SWTYBLZ
Language                                 : English
Default                                  : No
Forced                                   : No

Audio #3
ID                                       : 4
Format                                   : AC-3
Format/Info                              : Audio Coding 3
Codec ID                                 : A_AC3
Duration                                 : 2 h 10 min
Bit rate mode                            : Constant
Bit rate                                 : 640 kb/s
Channel(s)                               : 6 channels
Channel positions                        : Front: L C R, Side: L R, LFE
Sampling rate                            : 48.0 kHz
Frame rate                               : 31.250 FPS (1536 SPF)
Bit depth                                : 16 bits
Compression mode                         : Lossy
Delay relative to video                  : 31 ms
Stream size                              : 597 MiB (2%)
Title                                    : Thor.Ragnarok.2017.2160p.BluRay.x265.10bit.SDR.DTS-HD.MA.TrueHD.7.1.Atmos-SWTYBLZ
Language                                 : English
Service kind                             : Complete Main
Default                                  : No
Forced                                   : No

Text #1
ID                                       : 5
Format                                   : UTF-8
Codec ID                                 : S_TEXT/UTF8
Codec ID/Info                            : UTF-8 Plain Text
Duration                                 : 2 h 9 min
Bit rate                                 : 49 b/s
Count of elements                        : 1635
Stream size                              : 46.8 KiB (0%)
Title                                    : English-SRT
Language                                 : English
Default                                  : Yes
Forced                                   : No

Text #2
ID                                       : 6
Format                                   : PGS
Muxing mode                              : zlib
Codec ID                                 : S_HDMV/PGS
Codec ID/Info                            : Picture based subtitle format used on BDs/HD-DVDs
Duration                                 : 2 h 10 min
Bit rate                                 : 37.9 kb/s
Count of elements                        : 4164
Stream size                              : 35.3 MiB (0%)
Title                                    : English-PGS
Language                                 : English
Default                                  : No
Forced                                   : No

Text #3
ID                                       : 7
Format                                   : PGS
Muxing mode                              : zlib
Codec ID                                 : S_HDMV/PGS
Codec ID/Info                            : Picture based subtitle format used on BDs/HD-DVDs
Duration                                 : 2 h 9 min
Bit rate                                 : 30.4 kb/s
Count of elements                        : 3184
Stream size                              : 28.2 MiB (0%)
Title                                    : French-PGS
Language                                 : French
Default                                  : No
Forced                                   : No

Text #4
ID                                       : 8
Format                                   : PGS
Muxing mode                              : zlib
Codec ID                                 : S_HDMV/PGS
Codec ID/Info                            : Picture based subtitle format used on BDs/HD-DVDs
Duration                                 : 2 h 9 min
Bit rate                                 : 31.3 kb/s
Count of elements                        : 3144
Stream size                              : 29.0 MiB (0%)
Title                                    : Spanish-PGS
Language                                 : Spanish
Default                                  : No
Forced                                   : No

Text #5
ID                                       : 9
Format                                   : PGS
Muxing mode                              : zlib
Codec ID                                 : S_HDMV/PGS
Codec ID/Info                            : Picture based subtitle format used on BDs/HD-DVDs
Duration                                 : 2 h 9 min
Bit rate                                 : 18.3 kb/s
Count of elements                        : 3138
Stream size                              : 17.0 MiB (0%)
Title                                    : Chinese-PGS
Language                                 : Chinese
Default                                  : No
Forced                                   : No

Text #6
ID                                       : 10
Format                                   : PGS
Muxing mode                              : zlib
Codec ID                                 : S_HDMV/PGS
Codec ID/Info                            : Picture based subtitle format used on BDs/HD-DVDs
Duration                                 : 2 h 9 min
Bit rate                                 : 26.3 kb/s
Count of elements                        : 3128
Stream size                              : 24.4 MiB (0%)
Title                                    : French-PGS
Language                                 : French
Default                                  : No
Forced                                   : No

Text #7
ID                                       : 11
Format                                   : PGS
Muxing mode                              : zlib
Codec ID                                 : S_HDMV/PGS
Codec ID/Info                            : Picture based subtitle format used on BDs/HD-DVDs
Duration                                 : 2 h 9 min
Bit rate                                 : 33.3 kb/s
Count of elements                        : 3134
Stream size                              : 30.8 MiB (0%)
Title                                    : German-PGS
Language                                 : German
Default                                  : No
Forced                                   : No

Text #8
ID                                       : 12
Format                                   : PGS
Muxing mode                              : zlib
Codec ID                                 : S_HDMV/PGS
Codec ID/Info                            : Picture based subtitle format used on BDs/HD-DVDs
Duration                                 : 2 h 9 min
Bit rate                                 : 22.1 kb/s
Count of elements                        : 2958
Stream size                              : 20.4 MiB (0%)
Title                                    : Japanese-PGS
Language                                 : Japanese
Default                                  : No
Forced                                   : No

Text #9
ID                                       : 13
Format                                   : PGS
Muxing mode                              : zlib
Codec ID                                 : S_HDMV/PGS
Codec ID/Info                            : Picture based subtitle format used on BDs/HD-DVDs
Duration                                 : 2 h 9 min
Bit rate                                 : 15.9 kb/s
Count of elements                        : 3112
Stream size                              : 14.7 MiB (0%)
Title                                    : Korean-PGS
Language                                 : Korean
Default                                  : No
Forced                                   : No

Text #10
ID                                       : 14
Format                                   : PGS
Muxing mode                              : zlib
Codec ID                                 : S_HDMV/PGS
Codec ID/Info                            : Picture based subtitle format used on BDs/HD-DVDs
Duration                                 : 2 h 9 min
Bit rate                                 : 21.0 kb/s
Count of elements                        : 3245
Stream size                              : 19.4 MiB (0%)
Title                                    : Chinese-PGS
Language                                 : Chinese
Default                                  : No
Forced                                   : No

Menu
00:00:00.000                             : en:Chapter 1
00:06:20.671                             : en:Chapter 2
00:14:11.642                             : en:Chapter 3
00:22:12.873                             : en:Chapter 4
00:26:43.059                             : en:Chapter 5
00:31:29.721                             : en:Chapter 6
00:35:03.935                             : en:Chapter 7
00:42:49.733                             : en:Chapter 8
00:48:31.533                             : en:Chapter 9
00:59:38.783                             : en:Chapter 10
01:07:57.907                             : en:Chapter 11
01:17:30.604                             : en:Chapter 12
01:27:25.323                             : en:Chapter 13
01:36:08.721                             : en:Chapter 14
01:42:35.732                             : en:Chapter 15
01:49:19.886                             : en:Chapter 16
01:54:57.599                             : en:Chapter 17
02:00:37.521                             : en:Chapter 18





游客,如果您要查看本帖隐藏内容请回复,   如果您想享受免回复免冰币无广告权限→→请捐助论坛

本人发布的资源如果发现失效,可以私信联系我,能修复的我尽量修复。

1

主题

518

帖子

498

积分

部将

Rank: 3Rank: 3

UID
366628
积分
498
冰币
5318
威望
0
发表于 2018-3-1 12:44:40 | 显示全部楼层
多谢楼主分享      
回复 支持 反对

使用道具 举报

0

主题

47

帖子

-14

积分

民兵

UID
543677
积分
-14
冰币
-152
威望
0
发表于 2018-3-7 01:54:52 | 显示全部楼层
顶一个,一直想要这个资源
回复 支持 反对

使用道具 举报

1

主题

41

帖子

22

积分

大兵

Rank: 1

UID
342453
积分
22
冰币
191
威望
0
发表于 2018-3-8 11:09:48 | 显示全部楼层
如果您要查看本帖隐藏内容请
回复 支持 反对

使用道具 举报

1

主题

212

帖子

16

积分

大兵

Rank: 1

UID
361938
积分
16
冰币
120
威望
0
发表于 2018-4-4 10:01:36 | 显示全部楼层
雷神3:诸神黄昏【自带中字】
回复 支持 反对

使用道具 举报

1

主题

91

帖子

167

积分

中将

Rank: 2

UID
402897
积分
167
冰币
1848
威望
0
发表于 2018-4-23 20:02:51 | 显示全部楼层
经典大片,谢谢楼主分享!
回复 支持 反对

使用道具 举报

1

主题

361

帖子

221

积分

部将

Rank: 3Rank: 3

UID
317299
积分
221
冰币
2176
威望
0

捐助会员

发表于 2018-4-26 19:09:17 | 显示全部楼层
谢谢楼主分享
回复 支持 反对

使用道具 举报

0

主题

377

帖子

85

积分

小将

Rank: 2

UID
544475
积分
85
冰币
914
威望
0
发表于 3 天前 | 显示全部楼层
开心快乐每一天
回复 支持 反对

使用道具 举报

本版积分规则

手机版|小黑屋|冰冰网 ( 粤ICP备10024810号-1 )

GMT+8, 2018-5-23 11:21

Powered by www.discuz.net Discuz! X3.4

© 2001-2012 Comsenz Inc sitemap a67 s80


本站影视音乐资源来自互联网免费共享,仅供交流学习之用,版权归作者本人所有,如果侵犯了您的权益,请通知我们,邮箱地址mail@aapig.com
快速回复 返回顶部 返回列表