冰冰网

 找回密码
 开放注册,禁止乱回复
搜索
查看: 216|回复: 4

[纪录片] 地球:神奇的一天 【自带中字】2017.DOCU.2160p.BluRay.x265.10bit.HDR.DTS-SWTYBLZ 22GB

[复制链接]
 成长值: 150

7564

主题

7735

帖子

49万

积分

参谋

非凡-feifang

Rank: 8Rank: 8

UID
2
积分
495741
冰币
22305
威望
239

管理员

发表于 2018-2-24 20:33:56 | 显示全部楼层 |阅读模式 |        |

◎中文译名 地球:神奇的一天/地球:奇妙的一天(港)
◎片  名 Earth: One Amazing Day
◎日  期 2017
◎产  地 中国大陆/英国
◎影片类型 纪录片
◎对  白 汉语普通话/英语
◎上映日期 2017-08-11(中国大陆)
◎豆瓣评分 8.2/10 from 11,904 users
◎豆瓣链接 https://movie.douban.com/subject/26647876/
◎影片时长 94分钟
◎影片导演 理查德·戴尔 Richard Dale / 彼得·韦柏  Peter Webber / 范立欣 Lixin Fan
◎主要演员 成龙 Jackie Chan
      罗伯特·雷德福 Robert Redford

◎资源介绍

  曾成功推出电影《地球》的BBC地球影业带来了令人期待已久的续集——《地球:神奇的一天》,一段揭示自然界惊人力量的神奇旅程。一天内,我们跟随太阳的脚步从世界上最高的山到最远的岛、从野外的丛林走到繁华的城市。由于在电影制作技术上取得的惊人突破,从而我们可以让你能与一群难忘的角色亲密接触;幼年的斑马宝宝想要穿过一条湍急的河流, 英勇的企鹅爸爸每天都要从事一项与大海以性命相搏的工作来抚养家人,一个喜欢在大海里垂直着打瞌睡的抹香鲸家族,还有走在寻找真爱路上的树懒。《地球:神奇的一天》用幽默、亲密、感性而令人惊叹的电影感来讲述地球上这充满你见所未见而无法想象的神奇的每一天。



Video
ID                                       : 1
Format                                   : HEVC
Format/Info                              : High Efficiency Video Coding
Format profile                           : Main 10@L5.1@High
Codec ID                                 : V_MPEGH/ISO/HEVC
Duration                                 : 1 h 33 min
Bit rate                                 : 23.0 Mb/s
Width                                    : 3 840 pixels
Height                                   : 2 160 pixels
Display aspect ratio                     : 16:9
Frame rate mode                          : Constant
Frame rate                               : 24.000 FPS
Color space                              : YUV
Chroma subsampling                       : 4:2:0 (Type 2)
Bit depth                                : 10 bits
Bits/(Pixel*Frame)                       : 0.115
Stream size                              : 15.0 GiB (68%)
Title                                    : Earth.One.Amazing.Day.2017.DOCU.2160p.BluRay.x265.10bit.HDR.DTS-HD.MA.TrueHD.7.1.Atmos-SWTYBLZ
Writing library                          : x265 2.5b4a5bcfe29c7:[Windows][GCC 4.9.3][64 bit] 10bit
Encoding settings                        : cpuid=1173503 / frame-threads=16 / numa-pools=24,24,24,24 / wpp / no-pmode / no-pme / no-psnr / no-ssim / log-level=2 / input-csp=1 / input-res=3840x2160 / interlace=0 / total-frames=0 / level-idc=51 / high-tier=1 / uhd-bd=1 / ref=3 / no-allow-non-conformance / repeat-headers / annexb / aud / hrd / info / hash=0 / no-temporal-layers / no-open-gop / min-keyint=1 / keyint=24 / bframes=4 / b-adapt=2 / b-pyramid / bframe-bias=0 / rc-lookahead=25 / lookahead-slices=4 / scenecut=40 / no-intra-refresh / ctu=64 / min-cu-size=8 / no-rect / no-amp / max-tu-size=32 / tu-inter-depth=1 / tu-intra-depth=1 / limit-tu=0 / rdoq-level=0 / dynamic-rd=0.00 / no-ssim-rd / signhide / no-tskip / nr-intra=0 / nr-inter=0 / no-constrained-intra / strong-intra-smoothing / max-merge=2 / limit-refs=3 / no-limit-modes / me=1 / subme=2 / merange=57 / temporal-mvp / weightp / no-weightb / no-analyze-src-pics / deblock=0:0 / no-sao / no-sao-non-deblock / rd=3 / no-early-skip / rskip / no-fast-intra / no-tskip-fast / no-cu-lossless / no-b-intra / rdpenalty=0 / psy-rd=2.00 / psy-rdoq=0.00 / no-rd-refine / analysis-reuse-mode=0 / no-lossless / cbqpoffs=0 / crqpoffs=0 / rc=crf / crf=16.0 / qcomp=0.60 / qpstep=4 / stats-write=0 / stats-read=0 / vbv-maxrate=160000 / vbv-bufsize=160000 / vbv-init=0.9 / crf-max=0.0 / crf-min=0.0 / ipratio=1.40 / pbratio=1.30 / aq-mode=1 / aq-strength=1.00 / cutree / zone-count=0 / no-strict-cbr / qg-size=32 / no-rc-grain / qpmax=69 / qpmin=0 / no-const-vbv / sar=1 / overscan=0 / videoformat=5 / range=0 / colorprim=9 / transfer=16 / colormatrix=9 / chromaloc=1 / chromaloc-top=2 / chromaloc-bottom=2 / display-window=0 / master-display=G(13250,34500)B(7500,3000)R(34000,16000)WP(15635,16450)L(10000000,50) / max-cll=1000,217 / min-luma=0 / max-luma=1023 / log2-max-poc-lsb=8 / vui-timing-info / vui-hrd-info / slices=1 / opt-qp-pps / opt-ref-list-length-pps / no-multi-pass-opt-rps / scenecut-bias=0.05 / no-opt-cu-delta-qp / no-aq-motion / hdr / hdr-opt / no-dhdr10-opt / analysis-reuse-level=5 / scale-factor=0 / refine-intra=0 / refine-inter=0 / refine-mv=0 / no-limit-sao / ctu-info=0
Default                                  : Yes
Forced                                   : No
Color range                              : Limited
Color primaries                          : BT.2020
Transfer characteristics                 : PQ
Matrix coefficients                      : BT.2020 non-constant
Mastering display color primaries        : Display P3
Mastering display luminance              : min: 0.0050 cd/m2, max: 1000 cd/m2
Maximum Content Light Level              : 1000 cd/m2
Maximum Frame-Average Light Level        : 217 cd/m2

Audio #1
ID                                       : 2
Format                                   : TrueHD
Format profile                           : TrueHD+Atmos / TrueHD
Codec ID                                 : A_TRUEHD
Duration                                 : 1 h 33 min
Bit rate mode                            : Variable
Bit rate                                 : 6 085 kb/s
Maximum bit rate                         : 9 063 kb/s
Channel(s)                               : Object Based / 8 channels
Channel positions                        : Object Based / Front: L C R, Side: L R, Back: L R, LFE
Sampling rate                            :  / 48.0 kHz
Frame rate                               : 1 200.000 FPS (40 SPF)
Compression mode                         : Lossless
Stream size                              : 3.98 GiB (18%)
Title                                    : Earth.One.Amazing.Day.2017.DOCU.2160p.BluRay.x265.10bit.HDR.DTS-HD.MA.TrueHD.7.1.Atmos-SWTYBLZ
Language                                 : English
Default                                  : Yes
Forced                                   : No

Audio #2
ID                                       : 3
Format                                   : DTS
Format/Info                              : Digital Theater Systems
Format profile                           : MA / Core
Codec ID                                 : A_DTS
Duration                                 : 1 h 33 min
Bit rate mode                            : Variable / Constant
Bit rate                                 : 4 054 kb/s / 1 509 kb/s
Channel(s)                               : 8 channels / 6 channels
Channel positions                        : Front: L C R, Side: L R, Back: L R, LFE / Front: L C R, Side: L R, LFE
Sampling rate                            : 48.0 kHz
Frame rate                               : 93.750 FPS (512 SPF)
Bit depth                                : 24 bits
Compression mode                         : Lossless / Lossy
Stream size                              : 2.65 GiB (12%)
Title                                    : Earth.One.Amazing.Day.2017.DOCU.2160p.BluRay.x265.10bit.HDR.DTS-HD.MA.TrueHD.7.1.Atmos-SWTYBLZ
Language                                 : English
Default                                  : No
Forced                                   : No

Audio #3
ID                                       : 4
Format                                   : AC-3
Format/Info                              : Audio Coding 3
Codec ID                                 : A_AC3
Duration                                 : 1 h 33 min
Bit rate mode                            : Constant
Bit rate                                 : 640 kb/s
Channel(s)                               : 6 channels
Channel positions                        : Front: L C R, Side: L R, LFE
Sampling rate                            : 48.0 kHz
Frame rate                               : 31.250 FPS (1536 SPF)
Bit depth                                : 16 bits
Compression mode                         : Lossy
Stream size                              : 429 MiB (2%)
Title                                    : Earth.One.Amazing.Day.2017.DOCU.2160p.BluRay.x265.10bit.HDR.DTS-HD.MA.TrueHD.7.1.Atmos-SWTYBLZ
Language                                 : English
Service kind                             : Complete Main
Default                                  : No
Forced                                   : No

Text #1
ID                                       : 5
Format                                   : UTF-8
Codec ID                                 : S_TEXT/UTF8
Codec ID/Info                            : UTF-8 Plain Text
Duration                                 : 1 h 26 min
Bit rate                                 : 30 b/s
Count of elements                        : 452
Stream size                              : 19.4 KiB (0%)
Title                                    : English-SRT
Language                                 : English
Default                                  : Yes
Forced                                   : No

Text #2
ID                                       : 6
Format                                   : PGS
Muxing mode                              : zlib
Codec ID                                 : S_HDMV/PGS
Codec ID/Info                            : Picture based subtitle format used on BDs/HD-DVDs
Duration                                 : 1 h 27 min
Bit rate                                 : 24.6 kb/s
Count of elements                        : 1182
Stream size                              : 15.4 MiB (0%)
Title                                    : English-PGS
Language                                 : English
Default                                  : No
Forced                                   : No

Text #3
ID                                       : 7
Format                                   : PGS
Muxing mode                              : zlib
Codec ID                                 : S_HDMV/PGS
Codec ID/Info                            : Picture based subtitle format used on BDs/HD-DVDs
Duration                                 : 1 h 28 min
Bit rate                                 : 14.6 kb/s
Count of elements                        : 904
Stream size                              : 9.29 MiB (0%)
Title                                    : Chinese-PGS
Language                                 : Chinese
Default                                  : No
Forced                                   : No

Text #4
ID                                       : 8
Format                                   : PGS
Muxing mode                              : zlib
Codec ID                                 : S_HDMV/PGS
Codec ID/Info                            : Picture based subtitle format used on BDs/HD-DVDs
Duration                                 : 1 h 28 min
Bit rate                                 : 22.2 kb/s
Count of elements                        : 906
Stream size                              : 14.1 MiB (0%)
Title                                    : Spanish-PGS
Language                                 : Spanish
Default                                  : No
Forced                                   : No

Text #5
ID                                       : 9
Format                                   : PGS
Muxing mode                              : zlib
Codec ID                                 : S_HDMV/PGS
Codec ID/Info                            : Picture based subtitle format used on BDs/HD-DVDs
Duration                                 : 1 h 28 min
Bit rate                                 : 22.1 kb/s
Count of elements                        : 906
Stream size                              : 14.0 MiB (0%)
Title                                    : French-PGS
Language                                 : French
Default                                  : No
Forced                                   : No

Menu
00:00:00.000                             : en:Chapter 1
00:08:41.500                             : en:Chapter 2
00:16:49.958                             : en:Chapter 3
00:22:36.375                             : en:Chapter 4
00:29:06.416                             : en:Chapter 5
00:33:43.583                             : en:Chapter 6
00:36:21.125                             : en:Chapter 7
00:43:47.333                             : en:Chapter 8
00:47:47.500                             : en:Chapter 9
00:51:54.958                             : en:Chapter 10
00:57:49.708                             : en:Chapter 11
01:02:39.125                             : en:Chapter 12
01:06:01.958                             : en:Chapter 13
01:12:09.333                             : en:Chapter 14
01:16:30.208                             : en:Chapter 15
01:22:03.166                             : en:Chapter 16






游客,如果您要查看本帖隐藏内容请回复,   如果您想享受免回复免冰币无广告权限→→请捐助论坛

本人发布的资源如果发现失效,可以私信联系我,能修复的我尽量修复。

0

主题

462

帖子

170

积分

中将

Rank: 2

UID
35133
积分
170
冰币
1740
威望
0
发表于 2018-2-25 08:24:09 | 显示全部楼层
谢谢楼主,喜欢这个纪录片~
回复 支持 反对

使用道具 举报

0

主题

178

帖子

71

积分

小将

Rank: 2

UID
544174
积分
71
冰币
736
威望
0
发表于 2018-3-7 19:31:48 | 显示全部楼层
非常感谢楼主
回复 支持 反对

使用道具 举报

1

主题

215

帖子

27

积分

大兵

Rank: 1

UID
276045
积分
27
冰币
256
威望
0
发表于 2018-4-14 11:36:34 | 显示全部楼层
谢谢楼主分享了
回复 支持 反对

使用道具 举报

本版积分规则

手机版|小黑屋|冰冰网 ( 粤ICP备10024810号-1 )

GMT+8, 2018-5-24 14:19

Powered by www.discuz.net Discuz! X3.4

© 2001-2012 Comsenz Inc sitemap a67 s80


本站影视音乐资源来自互联网免费共享,仅供交流学习之用,版权归作者本人所有,如果侵犯了您的权益,请通知我们,邮箱地址mail@aapig.com
快速回复 返回顶部 返回列表