冰冰网

 找回密码
 开放注册,禁止乱回复
搜索
查看: 161|回复: 0

[左右格式] 雷神3[3D左右]2017.1080p.3D.BluRay.Half-SBS.x264.TrueHD.7.1.Atmos-FGT 21GB

[复制链接]
 成长值: 160

7575

主题

7746

帖子

49万

积分

参谋

非凡-feifang

Rank: 8Rank: 8

UID
2
积分
495745
冰币
22327
威望
239

管理员

发表于 2018-2-25 20:17:14 | 显示全部楼层 |阅读模式 |        |


◎中文译名 雷神3:诸神黄昏/雷神索尔3:诸神黄昏(台)/雷神奇侠3:诸神黄昏(港)/雷神3:诸神的黄昏
◎片  名 Thor: Ragnarok
◎日  期 2017
◎产  地 美国
◎影片类型 动作/奇幻/冒险
◎对  白 英语
◎上映日期 2017-10-24(英国)/2017-11-03(美国)/2017-11-03(中国大陆)
◎IMDb评分  8.0/10 from 235,579 users
◎IMDB链接  www.aapig.com.cn www.imdb.com/title/tt3501632/
◎豆瓣评分 7.5/10 from 146,161 users
◎豆瓣链接 https://movie.douban.com/subject/25821634/
◎影片时长 130分钟
◎影片导演 塔伊加·维迪提 Taika Waititi
◎主要演员 克里斯·海姆斯沃斯 Chris Hemsworth
      汤姆·希德勒斯顿 Tom Hiddleston
      凯特·布兰切特 Cate Blanchett
      伊德里斯·艾尔巴 Idris Elba
      杰夫·高布伦 Jeff Goldblum
      泰莎·汤普森 Tessa Thompson
      卡尔·厄本 Karl Urban
      马克·鲁弗洛 Mark Ruffalo
      安东尼·霍普金斯 Anthony Hopkins
      本尼迪克特·康伯巴奇 Benedict Cumberbatch
      塔伊加·维迪提 Taika Waititi
      瑞切尔·豪斯 Rachel House
      克兰西·布朗 Clancy Brown
      浅野忠信 Tadanobu Asano
      雷·史蒂文森 Ray Stevenson
      扎克瑞·莱维 Zachary Levi
      卢克·海姆斯沃斯 Luke Hemsworth
      马特·达蒙 Matt Damon
      山姆·尼尔 Sam Neill
      夏洛特·尼克道 Charlotte Nicdao
      斯坦·李 Stan Lee

◎资源介绍

  在“索科维亚战役”两年后,索尔(克里斯·海姆斯沃斯 饰)得知诸神黄昏的预言并希望全力阻止火焰巨人苏尔特尔毁灭阿斯加德。索尔与洛基(汤姆·希德勒斯顿 饰)在奇异博士(本尼迪克特·康伯巴奇 饰)的指引下找到了奥丁(安东尼·霍普金斯 饰)。奥丁向他们兄弟二人道出他们还有一位姐姐——“死亡女神”海拉(凯特·布兰切特 饰)。在一场战斗里雷神之锤被海拉所毁,索尔跌下彩虹桥而来到了萨卡星,成为阶下囚。失去了锤子的索尔被逼展开角斗士对决,而对手居然是自己的老战友绿巨人(马克·鲁弗洛 饰)。索尔必须与绿巨人、洛基等人并肩战斗,才能阻止海拉和即将到来的诸神黄昏。

◎获奖情况

  第16届美国视觉效果协会奖  (2018)
  最佳电影虚拟摄影(提名)
  最佳电影视觉效果合成(提名)

  第23届美国评论家选择电影奖  (2018)
  喜剧片最佳男主角(提名) 克里斯·海姆斯沃斯
  最佳动作片(提名)
  最佳视觉效果(提名)

  第4届豆瓣电影年度榜单  (2017)
  评分最高的科幻/动作片(提名)
  11月最受关注电影(提名)

  第3届豆瓣电影年度榜单  (2016)
  最值得期待的外语电影(提名)


Video
ID                                       : 1
Format                                   : AVC
Format/Info                              : Advanced Video Codec
Format profile                           : High@L4.1
Format settings                          : CABAC / 3 Ref Frames
Format settings, CABAC                   : Yes
Format settings, ReFrames                : 3 frames
Codec ID                                 : V_MPEG4/ISO/AVC
Duration                                 : 2 h 10 min
Bit rate                                 : 15.5 Mb/s
Width                                    : 1 920 pixels
Height                                   : 1 080 pixels
Display aspect ratio                     : 16:9
Frame rate mode                          : Constant
Frame rate                               : 23.976 (24000/1001) FPS
Color space                              : YUV
Chroma subsampling                       : 4:2:0
Bit depth                                : 8 bits
Scan type                                : Progressive
Bits/(Pixel*Frame)                       : 0.312
Stream size                              : 14.1 GiB (67%)
Title                                    : Thor.Ragnarok.2017.1080p.3D.BluRay.Half-SBS.x264.TrueHD.7.1.Atmos-FGT
Writing library                          : x264 core 148
Encoding settings                        : cabac=1 / ref=3 / deblock=1:-1:-1 / analyse=0x3:0 / me=hex / subme=5 / psy=1 / psy_rd=1.00:0.00 / mixed_ref=0 / me_range=16 / chroma_me=1 / trellis=1 / 8x8dct=1 / cqm=0 / deadzone=21,11 / fast_pskip=0 / chroma_qp_offset=0 / threads=24 / lookahead_threads=6 / sliced_threads=0 / nr=0 / decimate=1 / interlaced=0 / bluray_compat=0 / constrained_intra=0 / bframes=2 / b_pyramid=0 / b_adapt=1 / b_bias=0 / direct=1 / weightb=0 / open_gop=0 / weightp=0 / keyint=24 / keyint_min=2 / scenecut=40 / intra_refresh=0 / rc=abr / mbtree=0 / bitrate=15500 / ratetol=1.0 / qcomp=0.60 / qpmin=0 / qpmax=69 / qpstep=4 / ip_ratio=1.40 / pb_ratio=1.30 / aq=1:1.00
Default                                  : Yes
Forced                                   : No
Color range                              : Limited
Color primaries                          : BT.709
Transfer characteristics                 : BT.709
Matrix coefficients                      : BT.709

Audio #1
ID                                       : 2
Format                                   : TrueHD
Format profile                           : TrueHD+Atmos / TrueHD
Codec ID                                 : A_TRUEHD
Duration                                 : 2 h 10 min
Bit rate mode                            : Variable
Bit rate                                 : 4 051 kb/s
Maximum bit rate                         : 5 889 kb/s
Channel(s)                               : Object Based / 8 channels
Channel positions                        : Object Based / Front: L C R, Side: L R, Back: L R, LFE
Sampling rate                            :  / 48.0 kHz
Frame rate                               : 1 200.000 FPS (40 SPF)
Compression mode                         : Lossless
Delay relative to video                  : 32 ms
Stream size                              : 3.69 GiB (18%)
Title                                    : Thor.Ragnarok.2017.1080p.3D.BluRay.Half-SBS.x264.TrueHD.7.1.Atmos-FGT
Language                                 : English
Default                                  : Yes
Forced                                   : No

Audio #2
ID                                       : 3
Format                                   : AC-3
Format/Info                              : Audio Coding 3
Codec ID                                 : A_AC3
Duration                                 : 2 h 10 min
Bit rate mode                            : Constant
Bit rate                                 : 640 kb/s
Channel(s)                               : 6 channels
Channel positions                        : Front: L C R, Side: L R, LFE
Sampling rate                            : 48.0 kHz
Frame rate                               : 31.250 FPS (1536 SPF)
Bit depth                                : 16 bits
Compression mode                         : Lossy
Delay relative to video                  : 31 ms
Stream size                              : 597 MiB (3%)
Title                                    : Thor.Ragnarok.2017.1080p.3D.BluRay.Half-SBS.x264.TrueHD.7.1.Atmos-FGT
Language                                 : English
Service kind                             : Complete Main
Default                                  : No
Forced                                   : No

Audio #3
ID                                       : 4
Format                                   : DTS
Format/Info                              : Digital Theater Systems
Codec ID                                 : A_DTS
Duration                                 : 2 h 10 min
Bit rate mode                            : Constant
Bit rate                                 : 1 509 kb/s
Channel(s)                               : 6 channels
Channel positions                        : Front: L C R, Side: L R, LFE
Sampling rate                            : 48.0 kHz
Frame rate                               : 93.750 FPS (512 SPF)
Bit depth                                : 24 bits
Compression mode                         : Lossy
Stream size                              : 1.38 GiB (7%)
Title                                    : Thor.Ragnarok.2017.1080p.3D.BluRay.Half-SBS.x264.TrueHD.7.1.Atmos-FGT
Language                                 : English
Default                                  : No
Forced                                   : No

Audio #4
ID                                       : 5
Format                                   : AC-3
Format/Info                              : Audio Coding 3
Codec ID                                 : A_AC3
Duration                                 : 2 h 10 min
Bit rate mode                            : Constant
Bit rate                                 : 320 kb/s
Channel(s)                               : 2 channels
Channel positions                        : Front: L R
Sampling rate                            : 48.0 kHz
Frame rate                               : 31.250 FPS (1536 SPF)
Bit depth                                : 16 bits
Compression mode                         : Lossy
Stream size                              : 299 MiB (1%)
Title                                    : Thor.Ragnarok.2017.1080p.3D.BluRay.Half-SBS.x264.TrueHD.7.1.Atmos-FGT
Language                                 : English
Service kind                             : Complete Main
Default                                  : No
Forced                                   : No

Audio #5
ID                                       : 6
Format                                   : AC-3
Format/Info                              : Audio Coding 3
Codec ID                                 : A_AC3
Duration                                 : 2 h 10 min
Bit rate mode                            : Constant
Bit rate                                 : 512 kb/s
Channel(s)                               : 6 channels
Channel positions                        : Front: L C R, Side: L R, LFE
Sampling rate                            : 48.0 kHz
Frame rate                               : 31.250 FPS (1536 SPF)
Bit depth                                : 16 bits
Compression mode                         : Lossy
Stream size                              : 478 MiB (2%)
Title                                    : Thor.Ragnarok.2017.1080p.3D.BluRay.Half-SBS.x264.TrueHD.7.1.Atmos-FGT
Language                                 : French
Service kind                             : Complete Main
Default                                  : No
Forced                                   : No

Audio #6
ID                                       : 7
Format                                   : AC-3
Format/Info                              : Audio Coding 3
Codec ID                                 : A_AC3
Duration                                 : 2 h 10 min
Bit rate mode                            : Constant
Bit rate                                 : 512 kb/s
Channel(s)                               : 6 channels
Channel positions                        : Front: L C R, Side: L R, LFE
Sampling rate                            : 48.0 kHz
Frame rate                               : 31.250 FPS (1536 SPF)
Bit depth                                : 16 bits
Compression mode                         : Lossy
Stream size                              : 478 MiB (2%)
Title                                    : Thor.Ragnarok.2017.1080p.3D.BluRay.Half-SBS.x264.TrueHD.7.1.Atmos-FGT
Language                                 : German
Service kind                             : Complete Main
Default                                  : No
Forced                                   : No

Text #1
ID                                       : 8
Format                                   : PGS
Muxing mode                              : zlib
Codec ID                                 : S_HDMV/PGS
Codec ID/Info                            : Picture based subtitle format used on BDs/HD-DVDs
Duration                                 : 2 h 10 min
Bit rate                                 : 51.5 kb/s
Count of elements                        : 4162
Stream size                              : 47.9 MiB (0%)
Title                                    : English-PGS
Language                                 : English
Default                                  : No
Forced                                   : No

Text #2
ID                                       : 9
Format                                   : PGS
Muxing mode                              : zlib
Codec ID                                 : S_HDMV/PGS
Codec ID/Info                            : Picture based subtitle format used on BDs/HD-DVDs
Duration                                 : 2 h 9 min
Bit rate                                 : 35.7 kb/s
Count of elements                        : 3126
Stream size                              : 33.0 MiB (0%)
Title                                    : French-PGS
Language                                 : French
Default                                  : No
Forced                                   : No

Text #3
ID                                       : 10
Format                                   : PGS
Muxing mode                              : zlib
Codec ID                                 : S_HDMV/PGS
Codec ID/Info                            : Picture based subtitle format used on BDs/HD-DVDs
Duration                                 : 2 h 9 min
Bit rate                                 : 45.5 kb/s
Count of elements                        : 3132
Stream size                              : 42.1 MiB (0%)
Title                                    : German-PGS
Language                                 : German
Default                                  : No
Forced                                   : No

Text #4
ID                                       : 11
Format                                   : PGS
Muxing mode                              : zlib
Codec ID                                 : S_HDMV/PGS
Codec ID/Info                            : Picture based subtitle format used on BDs/HD-DVDs
Duration                                 : 2 h 9 min
Bit rate                                 : 19.6 kb/s
Count of elements                        : 3134
Stream size                              : 18.1 MiB (0%)
Title                                    : Arabic-PGS
Language                                 : Arabic
Default                                  : No
Forced                                   : No

Text #5
ID                                       : 12
Format                                   : PGS
Muxing mode                              : zlib
Codec ID                                 : S_HDMV/PGS
Codec ID/Info                            : Picture based subtitle format used on BDs/HD-DVDs
Duration                                 : 2 h 9 min
Bit rate                                 : 36.2 kb/s
Count of elements                        : 2242
Stream size                              : 33.6 MiB (0%)
Title                                    : Danish-PGS
Language                                 : Danish
Default                                  : No
Forced                                   : No

Text #6
ID                                       : 13
Format                                   : PGS
Muxing mode                              : zlib
Codec ID                                 : S_HDMV/PGS
Codec ID/Info                            : Picture based subtitle format used on BDs/HD-DVDs
Duration                                 : 2 h 9 min
Bit rate                                 : 38.1 kb/s
Count of elements                        : 2322
Stream size                              : 35.3 MiB (0%)
Title                                    : Dutch-PGS
Language                                 : Dutch
Default                                  : No
Forced                                   : No

Text #7
ID                                       : 14
Format                                   : PGS
Muxing mode                              : zlib
Codec ID                                 : S_HDMV/PGS
Codec ID/Info                            : Picture based subtitle format used on BDs/HD-DVDs
Duration                                 : 2 h 9 min
Bit rate                                 : 41.1 kb/s
Count of elements                        : 3134
Stream size                              : 38.1 MiB (0%)
Title                                    : Finnish-PGS
Language                                 : Finnish
Default                                  : No
Forced                                   : No

Text #8
ID                                       : 15
Format                                   : PGS
Muxing mode                              : zlib
Codec ID                                 : S_HDMV/PGS
Codec ID/Info                            : Picture based subtitle format used on BDs/HD-DVDs
Duration                                 : 2 h 9 min
Bit rate                                 : 37.6 kb/s
Count of elements                        : 3132
Stream size                              : 34.8 MiB (0%)
Title                                    : Norwegian-PGS
Language                                 : Norwegian
Default                                  : No
Forced                                   : No

Text #9
ID                                       : 16
Format                                   : PGS
Muxing mode                              : zlib
Codec ID                                 : S_HDMV/PGS
Codec ID/Info                            : Picture based subtitle format used on BDs/HD-DVDs
Duration                                 : 2 h 9 min
Bit rate                                 : 35.3 kb/s
Count of elements                        : 2112
Stream size                              : 32.7 MiB (0%)
Title                                    : Swedish-PGS
Language                                 : Swedish
Default                                  : No
Forced                                   : No

Text #10
ID                                       : 17
Format                                   : PGS
Muxing mode                              : zlib
Codec ID                                 : S_HDMV/PGS
Codec ID/Info                            : Picture based subtitle format used on BDs/HD-DVDs
Duration                                 : 3 s 378 ms
Bit rate                                 : 116 kb/s
Count of elements                        : 2
Stream size                              : 48.0 KiB (0%)
Title                                    : French-FORCED-PGS
Language                                 : French
Default                                  : No
Forced                                   : No

Menu
00:00:00.000                             : en01)00:00:00:000
00:06:20.671                             : en02)00:06:20:671
00:14:11.642                             : en03)00:14:11:642
00:22:12.873                             : en04)00:22:12:873
00:26:43.059                             : en05)00:26:43:059
00:31:29.721                             : en06)00:31:29:721
00:35:03.935                             : en07)00:35:03:935
00:42:49.733                             : en000:42:49:733
00:48:31.533                             : en09)00:48:31:533
00:59:38.783                             : en10)00:59:38:783
01:07:57.907                             : en11)01:07:57:907
01:17:30.604                             : en12)01:17:30:604
01:27:25.323                             : en13)01:27:25:323
01:36:08.721                             : en14)01:36:08:721
01:42:35.732                             : en15)01:42:35:732
01:49:19.886                             : en16)01:49:19:886
01:54:57.599                             : en17)01:54:57:599
02:00:37.521                             : en102:00:37:521
02:10:30.447                             : en19)02:10:30:447







种子百度云下载:
https://pan.baidu.com/s/1pMqDISr 密码: 7qgj

种子本地下载:
Thor.Ragnarok.2017.1080p.3D.BluRay.Half-SBS.x264.TrueHD.7.1.Atmos-FGT.torrent (53.29 KB, 下载次数: 13)
本人发布的资源如果发现失效,可以私信联系我,能修复的我尽量修复。

本版积分规则

手机版|小黑屋|冰冰网 ( 粤ICP备10024810号-1 )

GMT+8, 2018-5-25 11:34

Powered by www.discuz.net Discuz! X3.4

© 2001-2012 Comsenz Inc sitemap a67 s80


本站影视音乐资源来自互联网免费共享,仅供交流学习之用,版权归作者本人所有,如果侵犯了您的权益,请通知我们,邮箱地址mail@aapig.com
快速回复 返回顶部 返回列表