冰冰网

 找回密码
 开放注册,禁止乱回复
搜索
查看: 204|回复: 1

[欧美] 三块广告牌【自带中字】 2017.2160p.BluRay.x265.10bit.SDR.DTS-HD.MA.5.1-SWTYBLZ 27GB

[复制链接]
 成长值: 180

7591

主题

7762

帖子

49万

积分

参谋

非凡-feifang

Rank: 8Rank: 8

UID
2
积分
495755
冰币
22376
威望
239

管理员

发表于 2018-3-3 15:48:39 | 显示全部楼层 |阅读模式 |        |

◎中文译名 三块广告牌/意外(台)/广告牌杀人事件(港)
◎片  名 Three Billboards Outside Ebbing, Missouri
◎日  期 2017
◎产  地 美国/英国
◎影片类型 剧情/犯罪
◎对  白 英语
◎上映日期 2017-09-04(威尼斯电影节)/2017-12-01(美国)/2018-03-02(中国大陆)
◎IMDb评分  8.3/10 from 96,917 users
◎IMDB链接  www.aapig.com.cn www.imdb.com/title/tt5027774/
◎豆瓣评分 8.7/10 from 61,663 users
◎豆瓣链接 https://movie.douban.com/subject/26611804/
◎影片时长 115分钟
◎影片导演 马丁·麦克唐纳 Martin McDonagh
◎主要演员 弗兰西斯·麦克多蒙德 Frances McDormand
      伍迪·哈里森 Woody Harrelson
      山姆·洛克威尔 Sam Rockwell
      艾比·考尼什 Abbie Cornish
      卢卡斯·赫奇斯 Lucas Hedges
      彼特·丁克拉奇 Peter Dinklage
      约翰·浩克斯 John Hawkes
      卡赖伯·兰德里·琼斯 Caleb Landry Jones
      凯瑟琳·牛顿 Kathryn Newton
      凯瑞·康顿 Kerry Condon
      泽利科·伊万内克 Zeljko Ivanek
      萨玛拉·维文 Samara Weaving
      克拉克·彼得斯 Clarke Peters
      尼克·西塞 Nick Searcy
      阿曼达·沃伦 Amanda Warren
      玛拉雅·瑞沃拉·德鲁  Malaya Rivera Drew
      布兰登·萨克斯顿 Brendan Sexton III
      迈克尔·艾伦·米利甘 Michael Aaron Milligan

◎资源介绍

  米尔德雷德(弗兰西斯·麦克多蒙德 Frances McDormand 饰)的女儿在外出时惨遭奸杀,米尔德雷德和丈夫查理(约翰·哈克斯 John Hawkes 饰)之间的婚姻因此走到了尽头,如今,她同儿子雷德(卡莱伯·兰德里·琼斯 Caleb Landry Jones 饰)过着相依为命的生活。一晃眼几个月过去了,案件仍然没有告破预兆,而警方似乎早已经将注意力从案子上转移了开来。
  被绝望和痛苦缠绕的米尔德雷德租下了高速公路边上的三块巨型广告牌,在上面控诉警方办案无能,并将矛头直接对准了警察局局长威洛比(伍迪·哈里森 Woody Harrelson 饰)。实际上,威洛比一直隐瞒着自己身患绝症命不久矣的事实。因为这三块广告牌,米尔德雷德和威洛比的生活发生了翻天覆地的变化。

◎获奖情况

  第90届奥斯卡金像奖  (2018)
  最佳影片(提名) 马丁·麦克唐纳 / 彼得·切尔宁 / 格雷厄姆·布罗德本特
  最佳女主角(提名) 弗兰西斯·麦克多蒙德
  最佳男配角(提名) 山姆·洛克威尔 / 伍迪·哈里森
  最佳原创剧本(提名) 马丁·麦克唐纳
  最佳剪辑(提名) 乔恩·格雷戈里
  最佳原创配乐(提名) 卡特·布尔维尔

  第74届威尼斯电影节  (2017)
  主竞赛单元 最佳剧本奖 马丁·麦克唐纳
  主竞赛单元 金狮奖 (提名) 马丁·麦克唐纳

  第75届金球奖  (2018)
  电影类 最佳剧情片
  电影类 最佳导演(提名) 马丁·麦克唐纳
  电影类 剧情片最佳女主角 弗兰西斯·麦克多蒙德
  电影类 最佳男配角 山姆·洛克威尔
  电影类 最佳编剧 马丁·麦克唐纳
  电影类 最佳原创配乐(提名) 卡特·布尔维尔

  第71届英国电影学院奖  (2018)
  电影奖 最佳影片(提名)
  电影奖 最佳导演(提名) 马丁·麦克唐纳
  电影奖 最佳女主角(提名) 弗兰西斯·麦克多蒙德
  电影奖 最佳男配角(提名) 山姆·洛克威尔 / 伍迪·哈里森
  电影奖 最佳原创剧本(提名) 马丁·麦克唐纳
  电影奖 最佳摄影(提名) 本·戴维斯
  电影奖 最佳剪辑(提名)

  第42届多伦多国际电影节  (2017)
  观众选择奖

  第70届美国导演工会奖  (2018)
  最佳电影导演(提名) 马丁·麦克唐纳

  第24届美国演员工会奖  (2018)
  电影奖 最佳女主角 弗兰西斯·麦克多蒙德
  电影奖 最佳男配角 山姆·洛克威尔
  电影奖 最佳男配角(提名) 伍迪·哈里森
  电影奖 最佳群戏

  第29届美国制片人工会奖  (2018)
  最佳电影制片人奖(提名)

  第68届美国剪辑工会奖  (2018)
  音乐/喜剧片最佳剪辑(提名) 乔恩·格雷戈里

  第22届美国艺术指导工会奖  (2018)
  电影奖 最佳当代电影艺术指导(提名)

  第23届美国评论家选择电影奖  (2018)
  最佳影片(提名)
  最佳导演(提名) 马丁·麦克唐纳
  最佳女主角 弗兰西斯·麦克多蒙德
  最佳男配角 山姆·洛克威尔
  最佳群戏
  最佳原创剧本(提名) 马丁·麦克唐纳

  第33届美国独立精神奖  (2018)
  最佳女主角(提名) 弗兰西斯·麦克多蒙德
  最佳男配角(提名) 山姆·洛克威尔
  最佳剧本(提名) 马丁·麦克唐纳

  第20届英国独立电影奖  (2017)
  最佳英国独立电影(提名)
  最佳导演(提名) 马丁·麦克唐纳
  最佳编剧(提名) 马丁·麦克唐纳
  最佳女主角(提名) 弗兰西斯·麦克多蒙德
  最佳男配角(提名) 伍迪·哈里森 / 山姆·洛克威尔
  最佳选角(提名)
  最佳摄影(提名)
  最佳剪辑
  最佳音乐
  最佳音效(提名)

  第18届美国电影学会奖  (2017)
  年度佳片

  第22届金卫星奖  (2018)
  电影部门 最佳影片(提名)
  电影部门 最佳女主角(提名) 弗兰西斯·麦克多蒙德
  电影部门 最佳男配角(提名) 山姆·洛克威尔
  电影部门 最佳原创剧本(提名) 马丁·麦克唐纳
  电影部门 最佳摄影(提名) 本·戴维斯
  电影部门 最佳剪辑(提名) 乔恩·格雷戈里

  第52届美国国家影评人协会奖  (2018)
  最佳女主角(提名) 弗兰西斯·麦克多蒙德
  最佳男配角(提名) 山姆·洛克威尔

  第16届华盛顿影评人协会奖  (2017)
  最佳女主角 弗兰西斯·麦克多蒙德
  最佳男配角 山姆·洛克威尔
  最佳群戏

  第4届豆瓣电影年度榜单  (2017)
  2017-2018北美颁奖季热门佳片(提名)


Video
ID                                       : 1
Format                                   : HEVC
Format/Info                              : High Efficiency Video Coding
Format profile                           : Main 10@L5.1@High
Codec ID                                 : V_MPEGH/ISO/HEVC
Duration                                 : 1 h 55 min
Bit rate                                 : 29.8 Mb/s
Width                                    : 3 840 pixels
Height                                   : 1 606 pixels
Display aspect ratio                     : 2.40:1
Frame rate mode                          : Constant
Frame rate                               : 23.976 (24000/1001) FPS
Color space                              : YUV
Chroma subsampling                       : 4:2:0
Bit depth                                : 10 bits
Bits/(Pixel*Frame)                       : 0.202
Stream size                              : 24.0 GiB (87%)
Title                                    : Three.Billboards.Outside.Ebbing,.Missouri.2017.2160p.BluRay.x265.10bit.SDR.DTS-HD.MA.5.1-SWTYBLZ
Writing library                          : x265 2.5b4a5bcfe29c7:[Windows][GCC 4.9.3][64 bit] 10bit
Encoding settings                        : cpuid=1173503 / frame-threads=16 / numa-pools=24,24,24,24 / wpp / no-pmode / no-pme / no-psnr / no-ssim / log-level=2 / input-csp=1 / input-res=3840x1606 / interlace=0 / total-frames=0 / level-idc=51 / high-tier=1 / uhd-bd=0 / ref=3 / no-allow-non-conformance / repeat-headers / annexb / aud / hrd / info / hash=0 / no-temporal-layers / no-open-gop / min-keyint=1 / keyint=24 / bframes=4 / b-adapt=2 / b-pyramid / bframe-bias=0 / rc-lookahead=25 / lookahead-slices=4 / scenecut=40 / no-intra-refresh / ctu=64 / min-cu-size=8 / no-rect / no-amp / max-tu-size=32 / tu-inter-depth=1 / tu-intra-depth=1 / limit-tu=0 / rdoq-level=0 / dynamic-rd=0.00 / no-ssim-rd / signhide / no-tskip / nr-intra=0 / nr-inter=0 / no-constrained-intra / strong-intra-smoothing / max-merge=2 / limit-refs=3 / no-limit-modes / me=1 / subme=2 / merange=57 / temporal-mvp / weightp / no-weightb / no-analyze-src-pics / deblock=0:0 / no-sao / no-sao-non-deblock / rd=3 / no-early-skip / rskip / no-fast-intra / no-tskip-fast / no-cu-lossless / no-b-intra / rdpenalty=0 / psy-rd=2.00 / psy-rdoq=0.00 / no-rd-refine / analysis-reuse-mode=0 / no-lossless / cbqpoffs=0 / crqpoffs=0 / rc=crf / crf=16.0 / qcomp=0.60 / qpstep=4 / stats-write=0 / stats-read=0 / vbv-maxrate=160000 / vbv-bufsize=160000 / vbv-init=0.9 / crf-max=0.0 / crf-min=0.0 / ipratio=1.40 / pbratio=1.30 / aq-mode=1 / aq-strength=1.00 / cutree / zone-count=0 / no-strict-cbr / qg-size=32 / no-rc-grain / qpmax=69 / qpmin=0 / no-const-vbv / sar=1 / overscan=0 / videoformat=5 / range=0 / colorprim=2 / transfer=2 / colormatrix=2 / chromaloc=0 / display-window=0 / max-cll=0,0 / min-luma=0 / max-luma=1023 / log2-max-poc-lsb=8 / vui-timing-info / vui-hrd-info / slices=1 / opt-qp-pps / opt-ref-list-length-pps / no-multi-pass-opt-rps / scenecut-bias=0.05 / no-opt-cu-delta-qp / no-aq-motion / no-hdr / no-hdr-opt / no-dhdr10-opt / analysis-reuse-level=5 / scale-factor=0 / refine-intra=0 / refine-inter=0 / refine-mv=0 / no-limit-sao / ctu-info=0
Default                                  : Yes
Forced                                   : No

Audio #1
ID                                       : 2
Format                                   : DTS
Format/Info                              : Digital Theater Systems
Format profile                           : MA / Core
Codec ID                                 : A_DTS
Duration                                 : 1 h 55 min
Bit rate mode                            : Variable / Constant
Bit rate                                 : 3 625 kb/s / 1 509 kb/s
Channel(s)                               : 6 channels
Channel positions                        : Front: L C R, Side: L R, LFE
Sampling rate                            : 48.0 kHz
Frame rate                               : 93.750 FPS (512 SPF)
Bit depth                                : 24 bits
Compression mode                         : Lossless / Lossy
Stream size                              : 2.92 GiB (11%)
Title                                    : Three.Billboards.Outside.Ebbing,.Missouri.2017.2160p.BluRay.x265.10bit.SDR.DTS-HD.MA.5.1-SWTYBLZ
Language                                 : English
Default                                  : Yes
Forced                                   : No

Audio #2
ID                                       : 3
Format                                   : AC-3
Format/Info                              : Audio Coding 3
Codec ID                                 : A_AC3
Duration                                 : 1 h 55 min
Bit rate mode                            : Constant
Bit rate                                 : 640 kb/s
Channel(s)                               : 6 channels
Channel positions                        : Front: L C R, Side: L R, LFE
Sampling rate                            : 48.0 kHz
Frame rate                               : 31.250 FPS (1536 SPF)
Bit depth                                : 16 bits
Compression mode                         : Lossy
Stream size                              : 528 MiB (2%)
Title                                    : Three.Billboards.Outside.Ebbing,.Missouri.2017.2160p.BluRay.x265.10bit.SDR.DTS-HD.MA.5.1-SWTYBLZ
Language                                 : English
Service kind                             : Complete Main
Default                                  : No
Forced                                   : No

Text #1
ID                                       : 4
Format                                   : UTF-8
Codec ID                                 : S_TEXT/UTF8
Codec ID/Info                            : UTF-8 Plain Text
Duration                                 : 1 h 46 min
Bit rate                                 : 59 b/s
Count of elements                        : 1555
Stream size                              : 46.4 KiB (0%)
Title                                    : English-SRT
Language                                 : English
Default                                  : Yes
Forced                                   : No

Text #2
ID                                       : 5
Format                                   : PGS
Muxing mode                              : zlib
Codec ID                                 : S_HDMV/PGS
Codec ID/Info                            : Picture based subtitle format used on BDs/HD-DVDs
Duration                                 : 1 h 53 min
Bit rate                                 : 48.0 kb/s
Count of elements                        : 3476
Stream size                              : 38.8 MiB (0%)
Title                                    : English-PGS
Language                                 : English
Default                                  : No
Forced                                   : No

Text #3
ID                                       : 6
Format                                   : PGS
Muxing mode                              : zlib
Codec ID                                 : S_HDMV/PGS
Codec ID/Info                            : Picture based subtitle format used on BDs/HD-DVDs
Duration                                 : 1 h 53 min
Bit rate                                 : 35.5 kb/s
Count of elements                        : 2312
Stream size                              : 28.8 MiB (0%)
Title                                    : Spanish-PGS
Language                                 : Spanish
Default                                  : No
Forced                                   : No

Text #4
ID                                       : 7
Format                                   : PGS
Muxing mode                              : zlib
Codec ID                                 : S_HDMV/PGS
Codec ID/Info                            : Picture based subtitle format used on BDs/HD-DVDs
Duration                                 : 1 h 53 min
Bit rate                                 : 36.8 kb/s
Count of elements                        : 2358
Stream size                              : 29.9 MiB (0%)
Title                                    : French-PGS
Language                                 : French
Default                                  : No
Forced                                   : No

Text #5
ID                                       : 8
Format                                   : PGS
Muxing mode                              : zlib
Codec ID                                 : S_HDMV/PGS
Codec ID/Info                            : Picture based subtitle format used on BDs/HD-DVDs
Duration                                 : 1 h 53 min
Bit rate                                 : 32.3 kb/s
Count of elements                        : 2696
Stream size                              : 26.2 MiB (0%)
Title                                    : French-PGS
Language                                 : French
Default                                  : No
Forced                                   : No

Text #6
ID                                       : 9
Format                                   : PGS
Muxing mode                              : zlib
Codec ID                                 : S_HDMV/PGS
Codec ID/Info                            : Picture based subtitle format used on BDs/HD-DVDs
Duration                                 : 1 h 53 min
Bit rate                                 : 35.1 kb/s
Count of elements                        : 2302
Stream size                              : 28.5 MiB (0%)
Title                                    : Spanish-PGS
Language                                 : Spanish
Default                                  : No
Forced                                   : No

Text #7
ID                                       : 10
Format                                   : PGS
Muxing mode                              : zlib
Codec ID                                 : S_HDMV/PGS
Codec ID/Info                            : Picture based subtitle format used on BDs/HD-DVDs
Duration                                 : 1 h 52 min
Bit rate                                 : 35.8 kb/s
Count of elements                        : 2206
Stream size                              : 28.8 MiB (0%)
Title                                    : Danish-PGS
Language                                 : Danish
Default                                  : No
Forced                                   : No

Text #8
ID                                       : 11
Format                                   : PGS
Muxing mode                              : zlib
Codec ID                                 : S_HDMV/PGS
Codec ID/Info                            : Picture based subtitle format used on BDs/HD-DVDs
Duration                                 : 1 h 51 min
Bit rate                                 : 31.8 kb/s
Count of elements                        : 2180
Stream size                              : 25.3 MiB (0%)
Title                                    : Dutch-PGS
Language                                 : Dutch
Default                                  : No
Forced                                   : No

Text #9
ID                                       : 12
Format                                   : PGS
Muxing mode                              : zlib
Codec ID                                 : S_HDMV/PGS
Codec ID/Info                            : Picture based subtitle format used on BDs/HD-DVDs
Duration                                 : 1 h 52 min
Bit rate                                 : 34.7 kb/s
Count of elements                        : 2312
Stream size                              : 27.9 MiB (0%)
Title                                    : Finnish-PGS
Language                                 : Finnish
Default                                  : No
Forced                                   : No

Text #10
ID                                       : 13
Format                                   : PGS
Muxing mode                              : zlib
Codec ID                                 : S_HDMV/PGS
Codec ID/Info                            : Picture based subtitle format used on BDs/HD-DVDs
Duration                                 : 1 h 51 min
Bit rate                                 : 40.4 kb/s
Count of elements                        : 2474
Stream size                              : 32.2 MiB (0%)
Title                                    : German-PGS
Language                                 : German
Default                                  : No
Forced                                   : No

Text #11
ID                                       : 14
Format                                   : PGS
Muxing mode                              : zlib
Codec ID                                 : S_HDMV/PGS
Codec ID/Info                            : Picture based subtitle format used on BDs/HD-DVDs
Duration                                 : 1 h 53 min
Bit rate                                 : 34.2 kb/s
Count of elements                        : 2322
Stream size                              : 27.8 MiB (0%)
Title                                    : Italian-PGS
Language                                 : Italian
Default                                  : No
Forced                                   : No

Text #12
ID                                       : 15
Format                                   : PGS
Muxing mode                              : zlib
Codec ID                                 : S_HDMV/PGS
Codec ID/Info                            : Picture based subtitle format used on BDs/HD-DVDs
Duration                                 : 1 h 52 min
Bit rate                                 : 34.8 kb/s
Count of elements                        : 2310
Stream size                              : 28.0 MiB (0%)
Title                                    : Norwegian-PGS
Language                                 : Norwegian
Default                                  : No
Forced                                   : No

Text #13
ID                                       : 16
Format                                   : PGS
Muxing mode                              : zlib
Codec ID                                 : S_HDMV/PGS
Codec ID/Info                            : Picture based subtitle format used on BDs/HD-DVDs
Duration                                 : 1 h 51 min
Bit rate                                 : 36.8 kb/s
Count of elements                        : 2314
Stream size                              : 29.3 MiB (0%)
Title                                    : Swedish-PGS
Language                                 : Swedish
Default                                  : No
Forced                                   : No

Text #14
ID                                       : 17
Format                                   : PGS
Muxing mode                              : zlib
Codec ID                                 : S_HDMV/PGS
Codec ID/Info                            : Picture based subtitle format used on BDs/HD-DVDs
Duration                                 : 1 h 53 min
Bit rate                                 : 25.1 kb/s
Count of elements                        : 2426
Stream size                              : 20.4 MiB (0%)
Title                                    : Chinese-PGS
Language                                 : Chinese
Default                                  : No
Forced                                   : No

Text #15
ID                                       : 18
Format                                   : PGS
Muxing mode                              : zlib
Codec ID                                 : S_HDMV/PGS
Codec ID/Info                            : Picture based subtitle format used on BDs/HD-DVDs
Duration                                 : 1 h 53 min
Bit rate                                 : 30.5 kb/s
Count of elements                        : 2300
Stream size                              : 24.8 MiB (0%)
Title                                    : Czech-PGS
Language                                 : Czech
Default                                  : No
Forced                                   : No

Text #16
ID                                       : 19
Format                                   : PGS
Muxing mode                              : zlib
Codec ID                                 : S_HDMV/PGS
Codec ID/Info                            : Picture based subtitle format used on BDs/HD-DVDs
Duration                                 : 1 h 52 min
Bit rate                                 : 25.9 kb/s
Count of elements                        : 2314
Stream size                              : 20.8 MiB (0%)
Title                                    : Chinese-PGS
Language                                 : Chinese
Default                                  : No
Forced                                   : No

Text #17
ID                                       : 20
Format                                   : PGS
Muxing mode                              : zlib
Codec ID                                 : S_HDMV/PGS
Codec ID/Info                            : Picture based subtitle format used on BDs/HD-DVDs
Duration                                 : 1 h 53 min
Bit rate                                 : 28.2 kb/s
Count of elements                        : 2264
Stream size                              : 23.0 MiB (0%)
Title                                    : Polish-PGS
Language                                 : Polish
Default                                  : No
Forced                                   : No

Text #18
ID                                       : 21
Format                                   : PGS
Muxing mode                              : zlib
Codec ID                                 : S_HDMV/PGS
Codec ID/Info                            : Picture based subtitle format used on BDs/HD-DVDs
Duration                                 : 1 h 52 min
Bit rate                                 : 20.6 kb/s
Count of elements                        : 2459
Stream size                              : 16.6 MiB (0%)
Title                                    : Japanese-PGS
Language                                 : Japanese
Default                                  : No
Forced                                   : No

Text #19
ID                                       : 22
Format                                   : PGS
Muxing mode                              : zlib
Codec ID                                 : S_HDMV/PGS
Codec ID/Info                            : Picture based subtitle format used on BDs/HD-DVDs
Duration                                 : 1 h 35 min
Bit rate                                 : 253 b/s
Count of elements                        : 28
Stream size                              : 176 KiB (0%)
Title                                    : Japanese-PGS
Language                                 : Japanese
Default                                  : No
Forced                                   : No

Menu
00:00:00.000                             : en:Chapter 1
00:05:42.091                             : en:Chapter 2
00:08:56.911                             : en:Chapter 3
00:12:50.019                             : en:Chapter 4
00:19:46.643                             : en:Chapter 5
00:23:43.547                             : en:Chapter 6
00:27:36.363                             : en:Chapter 7
00:31:35.768                             : en:Chapter 8
00:35:08.689                             : en:Chapter 9
00:40:54.827                             : en:Chapter 10
00:44:35.714                             : en:Chapter 11
00:49:18.789                             : en:Chapter 12
00:55:35.915                             : en:Chapter 13
00:59:56.134                             : en:Chapter 14
01:04:09.887                             : en:Chapter 15
01:10:55.292                             : en:Chapter 16
01:15:36.698                             : en:Chapter 17
01:23:08.733                             : en:Chapter 18
01:27:24.489                             : en:Chapter 19
01:35:49.702                             : en:Chapter 20
01:40:32.693                             : en:Chapter 21
01:44:02.194                             : en:Chapter 22
01:46:56.910                             : en:Chapter 23
01:49:55.005                             : en:Chapter 24





  
种子本地下载:
Three.Billboards.Outside.Ebbing.Missouri.2017.2160p.BluRay.x265.10bit.SDR.DTS-HD.torrent (70.26 KB, 下载次数: 140)
本人发布的资源如果发现失效,可以私信联系我,能修复的我尽量修复。

0

主题

179

帖子

33

积分

小将

Rank: 2

UID
550214
积分
33
冰币
354
威望
0
发表于 2018-3-13 09:13:56 | 显示全部楼层
感谢楼主分享,可惜版权的关系,迅雷没法下载呀!
回复 支持 反对

使用道具 举报

本版积分规则

手机版|小黑屋|冰冰网 ( 粤ICP备10024810号-1 )

GMT+8, 2018-5-27 19:33

Powered by www.discuz.net Discuz! X3.4

© 2001-2012 Comsenz Inc sitemap a67 s80


本站影视音乐资源来自互联网免费共享,仅供交流学习之用,版权归作者本人所有,如果侵犯了您的权益,请通知我们,邮箱地址mail@aapig.com
快速回复 返回顶部 返回列表