冰冰网

 找回密码
 开放注册,禁止乱回复
搜索
查看: 282|回复: 0

[动漫] 公牛历险记【自带中字】 Ferdinand.2017.2160p.BluRay.x264.8bit.SDR.DTS-SWTYBLZ 20GB

[复制链接]
 成长值: 110

7525

主题

7696

帖子

49万

积分

参谋

非凡-feifang

Rank: 8Rank: 8

UID
2
积分
495716
冰币
22197
威望
237

管理员

发表于 2018-3-15 20:35:04 | 显示全部楼层 |阅读模式 |        |

◎中文译名 公牛历险记/萌牛费迪南(台)/快D啦牛牛(港)/费迪南德的故事/公牛费迪南德/小牛费迪南
◎片  名 Ferdinand
◎日  期 2017
◎产  地 美国
◎影片类型 喜剧/动画/冒险
◎对  白 英语
◎上映日期 2017-12-15(美国)/2018-01-19(中国大陆)
◎IMDb评分  6.7/10 from 8,728 users
◎IMDB链接  www.aapig.com.cn www.imdb.com/title/tt3411444/
◎豆瓣评分 7.4/10 from 14,520 users
◎豆瓣链接 https://movie.douban.com/subject/25846857/
◎影片时长 106分钟
◎影片导演 卡洛斯·沙尔丹哈 Carlos Saldanha
◎主要演员 约翰·塞纳 John Cena
      凯特·麦克金农 Kate McKinnon
      莉莉·戴 Lily Day
      鲍比·坎纳瓦尔 Bobby Cannavale
      安东尼·安德森 Anthony Anderson
      大卫·田纳特 David Tennant
      吉娜·罗德里格兹 Gina Rodriguez
      戴维德·迪格斯 Daveed Diggs
      加布里埃尔·伊格莱西亚斯 Gabriel Iglesias
      杰洛德·卡尔迈克 Jerrod Carmichael
      劳尔·埃斯帕扎 Raúl Esparza
      米格尔·安赫尔·西尔维斯特 Miguel ángel Silvestre
      弗卢拉·博格 Flula Borg
      莎莉·菲利普斯 Sally Phillips
      波瑞斯·科乔 Boris Kodjoe
      杰克·戈尔 Jack Gore
      杰特·尤尔根斯米尔 Jet Jurgensmeyer
      奈尔·迪亚兹 Nile Diaz
      柯林·H·墨菲 Colin H. Murphy
      卡洛斯·沙尔丹哈 Carlos Saldanha
      杰瑞米·西斯托 Jeremy Sisto
      路易斯·卡洛斯·德拉·隆巴纳 Luis Carlos de La Lombana
      胡安内斯 Juanes
      茱莉亚·斯卡帕·萨尔达尼亚 Julia Scarpa Saldanha
      拉斐尔·斯卡帕·萨尔达尼亚 Rafael Scarpa Saldanha
      卡拉·马丁内斯 Karla Martínez
      乔迪·卡巴勒罗 Jordi Caballero
      玛丽亚·佩拉莫尔 Maria Peyramaure
      娜扎宁·霍马 Nazanin Homa
      安德烈亚斯·A·埃斯帕萨 Andreas A. Esparza
      詹姆斯·帕伦博 James Palumbo
      伯纳多·德·保拉 Bernardo de Paula
      贝莉塔·莫里诺 Belita Moreno
      蒂姆·诺德奎斯特 Tim Nordquist
      阿尔瓦罗·门多萨 Alvaro Mendoza
      卡洛斯·雷格-普拉扎 Carlos Reig-Plaza
      辛迪·斯拉特里 Cindy Slattery
      杰森·弗里基奥内 Jason Fricchione
      苏珊娜·巴列斯特罗斯 Susana Ballesteros
      安娜·帕特丽夏·加梅斯 Ana Patricia Gámez

◎资源介绍

  影片根据曼罗·里夫1936年经典童书《爱花的牛》改编,讲述西班牙一头名为“费迪南德”(约翰·塞纳 John Cena 配音)的公牛的爆笑历险故事。费迪南德体型健壮,但却心地善良性格温和,它被误认为是危险的野兽,从而被捕送往他乡被逼做一只“斗牛”。为回到家人身边,他不得不踏上了一场终极冒险旅程……

◎获奖情况

  第90届奥斯卡金像奖  (2018)
  最佳动画长片(提名) 卡洛斯·沙尔丹哈

  第75届金球奖  (2018)
  电影类 最佳动画长片(提名)
  电影类 最佳原创歌曲(提名)

  第45届动画安妮奖  (2018)
  最佳剪辑(提名) 哈里·希特内 / 蒂姆·诺德奎斯特
  最佳艺术指导(提名)

  第29届美国制片人工会奖  (2018)
  最佳动画片制片人奖(提名)

  第16届美国视觉效果协会奖  (2018)
  最佳动画电影模拟动画效果(提名)

  第54届美国声音效果协会奖  (2018)
  动画电影最佳音效(提名)


Video
ID                                       : 1
Format                                   : AVC
Format/Info                              : Advanced Video Codec
Format profile                           : High@L5.1
Format settings                          : CABAC / 7 Ref Frames
Format settings, CABAC                   : Yes
Format settings, RefFrames               : 7 frames
Codec ID                                 : V_MPEG4/ISO/AVC
Duration                                 : 1 h 48 min
Bit rate                                 : 17.6 Mb/s
Width                                    : 3 840 pixels
Height                                   : 1 608 pixels
Display aspect ratio                     : 2.40:1
Frame rate mode                          : Constant
Frame rate                               : 23.976 (24000/1001) FPS
Color space                              : YUV
Chroma subsampling                       : 4:2:0
Bit depth                                : 8 bits
Scan type                                : Progressive
Bits/(Pixel*Frame)                       : 0.119
Stream size                              : 13.3 GiB (66%)
Title                                    : Ferdinand.2017.2160p.BluRay.x264.8bit.SDR.DTS-HD.MA.TrueHD.7.1.Atmos-SWTYBLZ
Writing library                          : x264 core 148 r2748 97eaef2
Encoding settings                        : cabac=1 / ref=7 / deblock=1:1:1 / analyse=0x3:0x113 / me=umh / subme=10 / psy=1 / psy_rd=0.40:0.00 / mixed_ref=1 / me_range=48 / chroma_me=1 / trellis=2 / 8x8dct=1 / cqm=0 / deadzone=21,11 / fast_pskip=1 / chroma_qp_offset=-2 / threads=36 / lookahead_threads=4 / sliced_threads=0 / nr=0 / decimate=0 / interlaced=0 / bluray_compat=0 / constrained_intra=0 / bframes=5 / b_pyramid=2 / b_adapt=2 / b_bias=0 / direct=3 / weightb=1 / open_gop=0 / weightp=2 / keyint=250 / keyint_min=23 / scenecut=40 / intra_refresh=0 / rc_lookahead=50 / rc=crf / mbtree=1 / crf=18.0 / qcomp=0.60 / qpmin=0 / qpmax=69 / qpstep=4 / ip_ratio=1.40 / aq=1:0.60
Default                                  : Yes
Forced                                   : No

Audio #1
ID                                       : 2
Format                                   : TrueHD
Format profile                           : TrueHD+Atmos / TrueHD
Codec ID                                 : A_TRUEHD
Duration                                 : 1 h 48 min
Bit rate mode                            : Variable
Bit rate                                 : 4 407 kb/s
Maximum bit rate                         : 7 644 kb/s
Channel(s)                               : Object Based / 8 channels
Channel positions                        : Object Based / Front: L C R, Side: L R, Back: L R, LFE
Sampling rate                            :  / 48.0 kHz
Frame rate                               : 1 200.000 FPS (40 SPF)
Compression mode                         : Lossless
Delay relative to video                  : 32 ms
Stream size                              : 3.33 GiB (16%)
Title                                    : Ferdinand.2017.2160p.BluRay.x264.8bit.SDR.DTS-HD.MA.TrueHD.7.1.Atmos-SWTYBLZ
Language                                 : English
Default                                  : Yes
Forced                                   : No

Audio #2
ID                                       : 3
Format                                   : DTS
Format/Info                              : Digital Theater Systems
Format profile                           : MA / Core
Codec ID                                 : A_DTS
Duration                                 : 1 h 48 min
Bit rate mode                            : Variable / Constant
Bit rate                                 : 3 941 kb/s / 1 509 kb/s
Channel(s)                               : 8 channels / 6 channels
Channel positions                        : Front: L C R, Side: L R, Back: L R, LFE / Front: L C R, Side: L R, LFE
Sampling rate                            : 48.0 kHz
Frame rate                               : 93.750 FPS (512 SPF)
Bit depth                                : 24 bits
Compression mode                         : Lossless / Lossy
Stream size                              : 2.98 GiB (15%)
Title                                    : Ferdinand.2017.2160p.BluRay.x264.8bit.SDR.DTS-HD.MA.TrueHD.7.1.Atmos-SWTYBLZ
Language                                 : English
Default                                  : No
Forced                                   : No

Audio #3
ID                                       : 4
Format                                   : AC-3
Format/Info                              : Audio Coding 3
Codec ID                                 : A_AC3
Duration                                 : 1 h 48 min
Bit rate mode                            : Constant
Bit rate                                 : 640 kb/s
Channel(s)                               : 6 channels
Channel positions                        : Front: L C R, Side: L R, LFE
Sampling rate                            : 48.0 kHz
Frame rate                               : 31.250 FPS (1536 SPF)
Bit depth                                : 16 bits
Compression mode                         : Lossy
Delay relative to video                  : 32 ms
Stream size                              : 495 MiB (2%)
Title                                    : Ferdinand.2017.2160p.BluRay.x264.8bit.SDR.DTS-HD.MA.TrueHD.7.1.Atmos-SWTYBLZ
Language                                 : English
Service kind                             : Complete Main
Default                                  : No
Forced                                   : No

Text #1
ID                                       : 5
Format                                   : UTF-8
Codec ID                                 : S_TEXT/UTF8
Codec ID/Info                            : UTF-8 Plain Text
Duration                                 : 1 h 43 min
Bit rate                                 : 56 b/s
Count of elements                        : 1830
Stream size                              : 43.0 KiB (0%)
Title                                    : English-SRT
Language                                 : English
Default                                  : Yes
Forced                                   : No

Text #2
ID                                       : 6
Format                                   : PGS
Muxing mode                              : zlib
Codec ID                                 : S_HDMV/PGS
Codec ID/Info                            : Picture based subtitle format used on BDs/HD-DVDs
Duration                                 : 1 h 43 min
Bit rate                                 : 40.2 kb/s
Count of elements                        : 3660
Stream size                              : 29.6 MiB (0%)
Title                                    : English-PGS
Language                                 : English
Default                                  : No
Forced                                   : No

Text #3
ID                                       : 7
Format                                   : PGS
Muxing mode                              : zlib
Codec ID                                 : S_HDMV/PGS
Codec ID/Info                            : Picture based subtitle format used on BDs/HD-DVDs
Duration                                 : 1 h 46 min
Bit rate                                 : 25.7 kb/s
Count of elements                        : 2276
Stream size                              : 19.6 MiB (0%)
Title                                    : Spanish-PGS
Language                                 : Spanish
Default                                  : No
Forced                                   : No

Text #4
ID                                       : 8
Format                                   : PGS
Muxing mode                              : zlib
Codec ID                                 : S_HDMV/PGS
Codec ID/Info                            : Picture based subtitle format used on BDs/HD-DVDs
Duration                                 : 1 h 46 min
Bit rate                                 : 24.0 kb/s
Count of elements                        : 2194
Stream size                              : 18.3 MiB (0%)
Title                                    : French-PGS
Language                                 : French
Default                                  : No
Forced                                   : No

Text #5
ID                                       : 9
Format                                   : PGS
Muxing mode                              : zlib
Codec ID                                 : S_HDMV/PGS
Codec ID/Info                            : Picture based subtitle format used on BDs/HD-DVDs
Duration                                 : 1 h 46 min
Bit rate                                 : 24.5 kb/s
Count of elements                        : 2264
Stream size                              : 18.7 MiB (0%)
Title                                    : Spanish-PGS
Language                                 : Spanish
Default                                  : No
Forced                                   : No

Text #6
ID                                       : 10
Format                                   : PGS
Muxing mode                              : zlib
Codec ID                                 : S_HDMV/PGS
Codec ID/Info                            : Picture based subtitle format used on BDs/HD-DVDs
Duration                                 : 1 h 46 min
Bit rate                                 : 24.9 kb/s
Count of elements                        : 1920
Stream size                              : 19.0 MiB (0%)
Title                                    : Danish-PGS
Language                                 : Danish
Default                                  : No
Forced                                   : No

Text #7
ID                                       : 11
Format                                   : PGS
Muxing mode                              : zlib
Codec ID                                 : S_HDMV/PGS
Codec ID/Info                            : Picture based subtitle format used on BDs/HD-DVDs
Duration                                 : 1 h 46 min
Bit rate                                 : 22.4 kb/s
Count of elements                        : 2038
Stream size                              : 17.1 MiB (0%)
Title                                    : Dutch-PGS
Language                                 : Dutch
Default                                  : No
Forced                                   : No

Text #8
ID                                       : 12
Format                                   : PGS
Muxing mode                              : zlib
Codec ID                                 : S_HDMV/PGS
Codec ID/Info                            : Picture based subtitle format used on BDs/HD-DVDs
Duration                                 : 1 h 46 min
Bit rate                                 : 22.8 kb/s
Count of elements                        : 2276
Stream size                              : 17.4 MiB (0%)
Title                                    : Finnish-PGS
Language                                 : Finnish
Default                                  : No
Forced                                   : No

Text #9
ID                                       : 13
Format                                   : PGS
Muxing mode                              : zlib
Codec ID                                 : S_HDMV/PGS
Codec ID/Info                            : Picture based subtitle format used on BDs/HD-DVDs
Duration                                 : 1 h 46 min
Bit rate                                 : 25.7 kb/s
Count of elements                        : 2184
Stream size                              : 19.6 MiB (0%)
Title                                    : German-PGS
Language                                 : German
Default                                  : No
Forced                                   : No

Text #10
ID                                       : 14
Format                                   : PGS
Muxing mode                              : zlib
Codec ID                                 : S_HDMV/PGS
Codec ID/Info                            : Picture based subtitle format used on BDs/HD-DVDs
Duration                                 : 1 h 46 min
Bit rate                                 : 25.3 kb/s
Count of elements                        : 2294
Stream size                              : 19.3 MiB (0%)
Title                                    : Italian-PGS
Language                                 : Italian
Default                                  : No
Forced                                   : No

Text #11
ID                                       : 15
Format                                   : PGS
Muxing mode                              : zlib
Codec ID                                 : S_HDMV/PGS
Codec ID/Info                            : Picture based subtitle format used on BDs/HD-DVDs
Duration                                 : 1 h 46 min
Bit rate                                 : 23.7 kb/s
Count of elements                        : 2294
Stream size                              : 18.1 MiB (0%)
Title                                    : Norwegian-PGS
Language                                 : Norwegian
Default                                  : No
Forced                                   : No

Text #12
ID                                       : 16
Format                                   : PGS
Muxing mode                              : zlib
Codec ID                                 : S_HDMV/PGS
Codec ID/Info                            : Picture based subtitle format used on BDs/HD-DVDs
Duration                                 : 1 h 46 min
Bit rate                                 : 25.2 kb/s
Count of elements                        : 2296
Stream size                              : 19.3 MiB (0%)
Title                                    : Swedish-PGS
Language                                 : Swedish
Default                                  : No
Forced                                   : No

Text #13
ID                                       : 17
Format                                   : PGS
Muxing mode                              : zlib
Codec ID                                 : S_HDMV/PGS
Codec ID/Info                            : Picture based subtitle format used on BDs/HD-DVDs
Duration                                 : 1 h 46 min
Bit rate                                 : 18.9 kb/s
Count of elements                        : 2298
Stream size                              : 14.4 MiB (0%)
Title                                    : Chinese-PGS
Language                                 : Chinese
Default                                  : No
Forced                                   : No

Text #14
ID                                       : 18
Format                                   : PGS
Muxing mode                              : zlib
Codec ID                                 : S_HDMV/PGS
Codec ID/Info                            : Picture based subtitle format used on BDs/HD-DVDs
Duration                                 : 1 h 46 min
Bit rate                                 : 23.6 kb/s
Count of elements                        : 2294
Stream size                              : 18.0 MiB (0%)
Title                                    : Czech-PGS
Language                                 : Czech
Default                                  : No
Forced                                   : No

Text #15
ID                                       : 19
Format                                   : PGS
Muxing mode                              : zlib
Codec ID                                 : S_HDMV/PGS
Codec ID/Info                            : Picture based subtitle format used on BDs/HD-DVDs
Duration                                 : 1 h 46 min
Bit rate                                 : 20.1 kb/s
Count of elements                        : 2306
Stream size                              : 15.3 MiB (0%)
Title                                    : Chinese-PGS
Language                                 : Chinese
Default                                  : No
Forced                                   : No

Text #16
ID                                       : 20
Format                                   : PGS
Muxing mode                              : zlib
Codec ID                                 : S_HDMV/PGS
Codec ID/Info                            : Picture based subtitle format used on BDs/HD-DVDs
Duration                                 : 1 h 46 min
Bit rate                                 : 25.0 kb/s
Count of elements                        : 2236
Stream size                              : 19.1 MiB (0%)
Title                                    : Polish-PGS
Language                                 : Polish
Default                                  : No
Forced                                   : No

Menu
00:00:00.000                             : en:Chapter 1
00:03:37.800                             : en:Chapter 2
00:08:10.281                             : en:Chapter 3
00:11:51.460                             : en:Chapter 4
00:16:23.524                             : en:Chapter 5
00:24:14.870                             : en:Chapter 6
00:28:30.458                             : en:Chapter 7
00:34:03.124                             : en:Chapter 8
00:37:53.187                             : en:Chapter 9
00:40:54.160                             : en:Chapter 10
00:44:55.359                             : en:Chapter 11
00:49:15.994                             : en:Chapter 12
00:53:27.245                             : en:Chapter 13
00:59:40.952                             : en:Chapter 14
01:03:20.671                             : en:Chapter 15
01:06:23.270                             : en:Chapter 16
01:09:19.822                             : en:Chapter 17
01:12:18.917                             : en:Chapter 18
01:17:33.940                             : en:Chapter 19
01:20:55.058                             : en:Chapter 20
01:25:33.837                             : en:Chapter 21
01:30:38.391                             : en:Chapter 22
01:36:01.839                             : en:Chapter 23
01:38:01.166                             : en:Chapter 24






种子百度云下载:
https://pan.baidu.com/s/1gw-mzPdRvNfoQNlVkcSoSA 密码: gctu

种子本地下载:
Ferdinand.2017.2160p.BluRay.x264.8bit.SDR.DTS-HD.MA.TrueHD.7.1.Atmos-SWTYBLZ.torrent (51.43 KB, 下载次数: 39)
本人发布的资源如果发现失效,可以私信联系我,能修复的我尽量修复。

本版积分规则

手机版|小黑屋|冰冰网 ( 粤ICP备10024810号-1 )

GMT+8, 2018-5-20 22:14

Powered by www.discuz.net Discuz! X3.4

© 2001-2012 Comsenz Inc sitemap a67 s80


本站影视音乐资源来自互联网免费共享,仅供交流学习之用,版权归作者本人所有,如果侵犯了您的权益,请通知我们,邮箱地址mail@aapig.com
快速回复 返回顶部 返回列表