冰冰网

 找回密码
 开放注册,禁止乱回复
搜索
查看: 123|回复: 1

[欧美] 缩小人生【自带中字】 Downsizing.2017.2160p.BluRay.x265.10bit.SDR.DTS-SWTYBLZ 43GB

[复制链接]
 成长值: 150

7564

主题

7735

帖子

49万

积分

参谋

非凡-feifang

Rank: 8Rank: 8

UID
2
积分
495741
冰币
22305
威望
239

管理员

发表于 2018-3-23 20:48:55 | 显示全部楼层 |阅读模式 |        |

◎中文译名 缩小人生/缩身/缩水人间(港)/谁缩小了我的老公(豆友译名)
◎片  名 Downsizing
◎日  期 2017
◎产  地 美国
◎影片类型 剧情/喜剧/科幻
◎对  白 英语
◎上映日期 2017-08-30(威尼斯电影节)/2017-12-22(美国)
◎IMDb评分  5.7/10 from 25,370 users
◎IMDB链接  www.aapig.com.cn www.imdb.com/title/tt1389072/
◎豆瓣评分 5.4/10 from 4,629 users
◎豆瓣链接 https://movie.douban.com/subject/3578939/  
◎影片时长 135分钟
◎影片导演 亚历山大·佩恩 Alexander Payne
◎主要演员 马特·达蒙 Matt Damon
      克里斯托弗·沃尔兹 Christoph Waltz
      周洪 Hong Chau
      克里斯汀·韦格 Kristen Wiig
      罗夫·拉斯加德 Rolf Lassgård
      英洁德·埃格伯格 Ingjerd Egeberg
      乌多·基尔 Udo Kier
      索伦·比尔马克 Søren Pilmark
      杰妮·霍蒂谢尔 Jayne Houdyshell
      杰森·苏戴奇斯 Jason Sudeikis
      玛莉贝丝·梦露 Maribeth Monroe
      菲尔·里夫斯 Phil Reeves
      布里盖特·伦迪·佩恩 Brigette Lundy-Paine
      詹姆斯·范德比克 James Van Der Beek
      艾丽森·J·帕尔默 Alison J. Palmer
      蒂姆·德里斯科尔 Tim Driscoll
      凯文·孔克尔 Kevin Kunkel
      派崔克·盖勒 Patrick Gallagher
      安娜·玛丽·考克斯 Ana Marie Cox
      罗兰·马丁 Roland Martin
      尼尔·帕特里克·哈里斯 Neil Patrick Harris
      劳拉·邓恩 Laura Dern
      南希·纳什 Niecy Nash
      玛格·马丁戴尔 Margo Martindale
      凯瑞·肯妮 Kerri Kenney
      唐·雷克 Don Lake
      玛丽·凯·普莱斯 Mary Kay Place

◎资源介绍

  在《缩身》中,亚历山大·佩恩描写了一对财政紧张的夫妇,为了节省开支他们决定“缩身”——把自己变得更小,这样日常消耗也就少多了。然而在缩身开始前的最后一秒,妻子退怯了,只有丈夫进行了缩身。由此带来的结果是,迷你小丈夫(马特·戴蒙)与妻子在很多方面开始出现不和谐,夫妻关系陷入紧张。

◎获奖情况

  第74届威尼斯电影节  (2017)
  主竞赛单元 金狮奖 (提名) 亚历山大·佩恩

  第75届金球奖  (2018)
  电影类 最佳女配角(提名) 周洪

  第24届美国演员工会奖  (2018)
  电影奖 最佳女配角(提名) 周洪

  第22届美国艺术指导工会奖  (2018)
  电影奖 最佳当代电影艺术指导(提名)

  第16届美国视觉效果协会奖  (2018)
  最佳电影辅助视觉效果(提名)

  第89届美国国家评论协会奖  (2017)
  年度佳片

  第23届美国评论家选择电影奖  (2018)
  最佳女配角(提名) 周洪

  第22届金卫星奖  (2018)
  电影部门 最佳美术指导(提名)

Video
ID                                       : 1
Format                                   : HEVC
Format/Info                              : High Efficiency Video Coding
Format profile                           : Main 10@L5.1@High
Codec ID                                 : V_MPEGH/ISO/HEVC
Duration                                 : 2 h 15 min
Bit rate                                 : 40.5 Mb/s
Width                                    : 3 840 pixels
Height                                   : 1 606 pixels
Display aspect ratio                     : 2.40:1
Frame rate mode                          : Constant
Frame rate                               : 23.976 (24000/1001) FPS
Color space                              : YUV
Chroma subsampling                       : 4:2:0
Bit depth                                : 10 bits
Bits/(Pixel*Frame)                       : 0.274
Stream size                              : 38.3 GiB (88%)
Title                                    : Downsizing.2017.2160p.BluRay.x265.10bit.SDR.DTS-HD.MA.7.1-SWTYBLZ
Writing library                          : x265 2.5b4a5bcfe29c7:[Windows][GCC 4.9.3][64 bit] 10bit
Encoding settings                        : cpuid=1173503 / frame-threads=16 / numa-pools=24,24,24,24 / wpp / no-pmode / no-pme / no-psnr / no-ssim / log-level=2 / input-csp=1 / input-res=3840x1606 / interlace=0 / total-frames=0 / level-idc=51 / high-tier=1 / uhd-bd=0 / ref=3 / no-allow-non-conformance / repeat-headers / annexb / aud / hrd / info / hash=0 / no-temporal-layers / no-open-gop / min-keyint=1 / keyint=24 / bframes=4 / b-adapt=2 / b-pyramid / bframe-bias=0 / rc-lookahead=25 / lookahead-slices=4 / scenecut=40 / no-intra-refresh / ctu=64 / min-cu-size=8 / no-rect / no-amp / max-tu-size=32 / tu-inter-depth=1 / tu-intra-depth=1 / limit-tu=0 / rdoq-level=0 / dynamic-rd=0.00 / no-ssim-rd / signhide / no-tskip / nr-intra=0 / nr-inter=0 / no-constrained-intra / strong-intra-smoothing / max-merge=2 / limit-refs=3 / no-limit-modes / me=1 / subme=2 / merange=57 / temporal-mvp / weightp / no-weightb / no-analyze-src-pics / deblock=0:0 / no-sao / no-sao-non-deblock / rd=3 / no-early-skip / rskip / no-fast-intra / no-tskip-fast / no-cu-lossless / no-b-intra / rdpenalty=0 / psy-rd=2.00 / psy-rdoq=0.00 / no-rd-refine / analysis-reuse-mode=0 / no-lossless / cbqpoffs=0 / crqpoffs=0 / rc=crf / crf=16.0 / qcomp=0.60 / qpstep=4 / stats-write=0 / stats-read=0 / vbv-maxrate=160000 / vbv-bufsize=160000 / vbv-init=0.9 / crf-max=0.0 / crf-min=0.0 / ipratio=1.40 / pbratio=1.30 / aq-mode=1 / aq-strength=1.00 / cutree / zone-count=0 / no-strict-cbr / qg-size=32 / no-rc-grain / qpmax=69 / qpmin=0 / no-const-vbv / sar=1 / overscan=0 / videoformat=5 / range=0 / colorprim=2 / transfer=2 / colormatrix=2 / chromaloc=0 / display-window=0 / max-cll=0,0 / min-luma=0 / max-luma=1023 / log2-max-poc-lsb=8 / vui-timing-info / vui-hrd-info / slices=1 / opt-qp-pps / opt-ref-list-length-pps / no-multi-pass-opt-rps / scenecut-bias=0.05 / no-opt-cu-delta-qp / no-aq-motion / no-hdr / no-hdr-opt / no-dhdr10-opt / analysis-reuse-level=5 / scale-factor=0 / refine-intra=0 / refine-inter=0 / refine-mv=0 / no-limit-sao / ctu-info=0
Default                                  : Yes
Forced                                   : No

Audio #1
ID                                       : 2
Format                                   : DTS
Format/Info                              : Digital Theater Systems
Format profile                           : MA / Core
Codec ID                                 : A_DTS
Duration                                 : 2 h 15 min
Bit rate mode                            : Variable / Constant
Bit rate                                 : 4 370 kb/s / 1 509 kb/s
Channel(s)                               : 8 channels / 6 channels
Channel positions                        : Front: L C R, Side: L R, Back: L R, LFE / Front: L C R, Side: L R, LFE
Sampling rate                            : 48.0 kHz
Frame rate                               : 93.750 FPS (512 SPF)
Bit depth                                : 24 bits
Compression mode                         : Lossless / Lossy
Stream size                              : 4.13 GiB (10%)
Title                                    : Downsizing.2017.2160p.BluRay.x265.10bit.SDR.DTS-HD.MA.7.1-SWTYBLZ
Language                                 : English
Default                                  : Yes
Forced                                   : No

Audio #2
ID                                       : 3
Format                                   : AC-3
Format/Info                              : Audio Coding 3
Codec ID                                 : A_AC3
Duration                                 : 2 h 15 min
Bit rate mode                            : Constant
Bit rate                                 : 640 kb/s
Channel(s)                               : 6 channels
Channel positions                        : Front: L C R, Side: L R, LFE
Sampling rate                            : 48.0 kHz
Frame rate                               : 31.250 FPS (1536 SPF)
Bit depth                                : 16 bits
Compression mode                         : Lossy
Stream size                              : 620 MiB (1%)
Title                                    : Downsizing.2017.2160p.BluRay.x265.10bit.SDR.DTS-HD.MA.7.1-SWTYBLZ
Language                                 : English
Service kind                             : Complete Main
Default                                  : No
Forced                                   : No

Text #1
ID                                       : 4
Format                                   : UTF-8
Codec ID                                 : S_TEXT/UTF8
Codec ID/Info                            : UTF-8 Plain Text
Duration                                 : 2 h 4 min
Bit rate                                 : 58 b/s
Count of elements                        : 1634
Stream size                              : 53.5 KiB (0%)
Title                                    : English-SRT
Language                                 : English
Default                                  : Yes
Forced                                   : No

Text #2
ID                                       : 5
Format                                   : PGS
Muxing mode                              : zlib
Codec ID                                 : S_HDMV/PGS
Codec ID/Info                            : Picture based subtitle format used on BDs/HD-DVDs
Duration                                 : 2 h 4 min
Bit rate                                 : 35.6 kb/s
Count of elements                        : 3270
Stream size                              : 31.8 MiB (0%)
Title                                    : English-PGS
Language                                 : English
Default                                  : No
Forced                                   : No

Text #3
ID                                       : 6
Format                                   : PGS
Muxing mode                              : zlib
Codec ID                                 : S_HDMV/PGS
Codec ID/Info                            : Picture based subtitle format used on BDs/HD-DVDs
Duration                                 : 2 h 7 min
Bit rate                                 : 39.0 kb/s
Count of elements                        : 3660
Stream size                              : 35.5 MiB (0%)
Title                                    : English-SDH-PGS
Language                                 : English
Default                                  : No
Forced                                   : No

Text #4
ID                                       : 7
Format                                   : PGS
Muxing mode                              : zlib
Codec ID                                 : S_HDMV/PGS
Codec ID/Info                            : Picture based subtitle format used on BDs/HD-DVDs
Duration                                 : 2 h 14 min
Bit rate                                 : 17.4 kb/s
Count of elements                        : 3140
Stream size                              : 16.8 MiB (0%)
Title                                    : Arabic-PGS
Language                                 : Arabic
Default                                  : No
Forced                                   : No

Text #5
ID                                       : 8
Format                                   : PGS
Muxing mode                              : zlib
Codec ID                                 : S_HDMV/PGS
Codec ID/Info                            : Picture based subtitle format used on BDs/HD-DVDs
Duration                                 : 2 h 14 min
Bit rate                                 : 37.3 kb/s
Count of elements                        : 3516
Stream size                              : 35.9 MiB (0%)
Title                                    : Malay-PGS
Language                                 : Malay
Default                                  : No
Forced                                   : No

Text #6
ID                                       : 9
Format                                   : PGS
Muxing mode                              : zlib
Codec ID                                 : S_HDMV/PGS
Codec ID/Info                            : Picture based subtitle format used on BDs/HD-DVDs
Duration                                 : 2 h 14 min
Bit rate                                 : 22.5 kb/s
Count of elements                        : 2940
Stream size                              : 21.7 MiB (0%)
Title                                    : Chinese-PGS
Language                                 : Chinese
Default                                  : No
Forced                                   : No

Text #7
ID                                       : 10
Format                                   : PGS
Muxing mode                              : zlib
Codec ID                                 : S_HDMV/PGS
Codec ID/Info                            : Picture based subtitle format used on BDs/HD-DVDs
Duration                                 : 2 h 14 min
Bit rate                                 : 30.4 kb/s
Count of elements                        : 2946
Stream size                              : 29.3 MiB (0%)
Title                                    : Czech-PGS
Language                                 : Czech
Default                                  : No
Forced                                   : No

Text #8
ID                                       : 11
Format                                   : PGS
Muxing mode                              : zlib
Codec ID                                 : S_HDMV/PGS
Codec ID/Info                            : Picture based subtitle format used on BDs/HD-DVDs
Duration                                 : 2 h 14 min
Bit rate                                 : 29.4 kb/s
Count of elements                        : 2370
Stream size                              : 28.3 MiB (0%)
Title                                    : Danish-PGS
Language                                 : Danish
Default                                  : No
Forced                                   : No

Text #9
ID                                       : 12
Format                                   : PGS
Muxing mode                              : zlib
Codec ID                                 : S_HDMV/PGS
Codec ID/Info                            : Picture based subtitle format used on BDs/HD-DVDs
Duration                                 : 2 h 14 min
Bit rate                                 : 35.7 kb/s
Count of elements                        : 2930
Stream size                              : 34.4 MiB (0%)
Title                                    : German-PGS
Language                                 : German
Default                                  : No
Forced                                   : No

Text #10
ID                                       : 13
Format                                   : PGS
Muxing mode                              : zlib
Codec ID                                 : S_HDMV/PGS
Codec ID/Info                            : Picture based subtitle format used on BDs/HD-DVDs
Duration                                 : 2 h 14 min
Bit rate                                 : 34.9 kb/s
Count of elements                        : 3124
Stream size                              : 33.6 MiB (0%)
Title                                    : Greek-PGS
Language                                 : Greek
Default                                  : No
Forced                                   : No

Text #11
ID                                       : 14
Format                                   : PGS
Muxing mode                              : zlib
Codec ID                                 : S_HDMV/PGS
Codec ID/Info                            : Picture based subtitle format used on BDs/HD-DVDs
Duration                                 : 2 h 14 min
Bit rate                                 : 32.1 kb/s
Count of elements                        : 2930
Stream size                              : 30.9 MiB (0%)
Title                                    : Spanish-PGS
Language                                 : Spanish
Default                                  : No
Forced                                   : No

Text #12
ID                                       : 15
Format                                   : PGS
Muxing mode                              : zlib
Codec ID                                 : S_HDMV/PGS
Codec ID/Info                            : Picture based subtitle format used on BDs/HD-DVDs
Duration                                 : 2 h 14 min
Bit rate                                 : 31.6 kb/s
Count of elements                        : 3120
Stream size                              : 30.4 MiB (0%)
Title                                    : Spanish-PGS
Language                                 : Spanish
Default                                  : No
Forced                                   : No

Text #13
ID                                       : 16
Format                                   : PGS
Muxing mode                              : zlib
Codec ID                                 : S_HDMV/PGS
Codec ID/Info                            : Picture based subtitle format used on BDs/HD-DVDs
Duration                                 : 2 h 14 min
Bit rate                                 : 35.0 kb/s
Count of elements                        : 3498
Stream size                              : 33.7 MiB (0%)
Title                                    : French-PGS
Language                                 : French
Default                                  : No
Forced                                   : No

Text #14
ID                                       : 17
Format                                   : PGS
Muxing mode                              : zlib
Codec ID                                 : S_HDMV/PGS
Codec ID/Info                            : Picture based subtitle format used on BDs/HD-DVDs
Duration                                 : 2 h 14 min
Bit rate                                 : 27.9 kb/s
Count of elements                        : 3090
Stream size                              : 26.9 MiB (0%)
Title                                    : French-PGS
Language                                 : French
Default                                  : No
Forced                                   : No

Text #15
ID                                       : 18
Format                                   : PGS
Muxing mode                              : zlib
Codec ID                                 : S_HDMV/PGS
Codec ID/Info                            : Picture based subtitle format used on BDs/HD-DVDs
Duration                                 : 2 h 14 min
Bit rate                                 : 27.9 kb/s
Count of elements                        : 3538
Stream size                              : 26.9 MiB (0%)
Title                                    : Hindi-PGS
Language                                 : Hindi
Default                                  : No
Forced                                   : No

Text #16
ID                                       : 19
Format                                   : PGS
Muxing mode                              : zlib
Codec ID                                 : S_HDMV/PGS
Codec ID/Info                            : Picture based subtitle format used on BDs/HD-DVDs
Duration                                 : 2 h 14 min
Bit rate                                 : 33.1 kb/s
Count of elements                        : 3530
Stream size                              : 31.8 MiB (0%)
Title                                    : Icelandic-PGS
Language                                 : Icelandic
Default                                  : No
Forced                                   : No

Text #17
ID                                       : 20
Format                                   : PGS
Muxing mode                              : zlib
Codec ID                                 : S_HDMV/PGS
Codec ID/Info                            : Picture based subtitle format used on BDs/HD-DVDs
Duration                                 : 2 h 14 min
Bit rate                                 : 32.5 kb/s
Count of elements                        : 3146
Stream size                              : 31.3 MiB (0%)
Title                                    : Italian-PGS
Language                                 : Italian
Default                                  : No
Forced                                   : No

Text #18
ID                                       : 21
Format                                   : PGS
Muxing mode                              : zlib
Codec ID                                 : S_HDMV/PGS
Codec ID/Info                            : Picture based subtitle format used on BDs/HD-DVDs
Duration                                 : 2 h 14 min
Bit rate                                 : 18.7 kb/s
Count of elements                        : 3162
Stream size                              : 18.0 MiB (0%)
Title                                    : Korean-PGS
Language                                 : Korean
Default                                  : No
Forced                                   : No

Text #19
ID                                       : 22
Format                                   : PGS
Muxing mode                              : zlib
Codec ID                                 : S_HDMV/PGS
Codec ID/Info                            : Picture based subtitle format used on BDs/HD-DVDs
Duration                                 : 2 h 14 min
Bit rate                                 : 32.4 kb/s
Count of elements                        : 3526
Stream size                              : 31.2 MiB (0%)
Title                                    : Hungarian-PGS
Language                                 : Hungarian
Default                                  : No
Forced                                   : No

Text #20
ID                                       : 23
Format                                   : PGS
Muxing mode                              : zlib
Codec ID                                 : S_HDMV/PGS
Codec ID/Info                            : Picture based subtitle format used on BDs/HD-DVDs
Duration                                 : 2 h 14 min
Bit rate                                 : 25.1 kb/s
Count of elements                        : 3520
Stream size                              : 24.2 MiB (0%)
Title                                    : Chinese-PGS
Language                                 : Chinese
Default                                  : No
Forced                                   : No

Text #21
ID                                       : 24
Format                                   : PGS
Muxing mode                              : zlib
Codec ID                                 : S_HDMV/PGS
Codec ID/Info                            : Picture based subtitle format used on BDs/HD-DVDs
Duration                                 : 2 h 14 min
Bit rate                                 : 28.0 kb/s
Count of elements                        : 2416
Stream size                              : 26.9 MiB (0%)
Title                                    : Dutch-PGS
Language                                 : Dutch
Default                                  : No
Forced                                   : No

Text #22
ID                                       : 25
Format                                   : PGS
Muxing mode                              : zlib
Codec ID                                 : S_HDMV/PGS
Codec ID/Info                            : Picture based subtitle format used on BDs/HD-DVDs
Duration                                 : 2 h 14 min
Bit rate                                 : 28.8 kb/s
Count of elements                        : 2934
Stream size                              : 27.7 MiB (0%)
Title                                    : Norwegian-PGS
Language                                 : Norwegian
Default                                  : No
Forced                                   : No

Text #23
ID                                       : 26
Format                                   : PGS
Muxing mode                              : zlib
Codec ID                                 : S_HDMV/PGS
Codec ID/Info                            : Picture based subtitle format used on BDs/HD-DVDs
Duration                                 : 2 h 14 min
Bit rate                                 : 27.8 kb/s
Count of elements                        : 3062
Stream size                              : 26.8 MiB (0%)
Title                                    : Polish-PGS
Language                                 : Polish
Default                                  : No
Forced                                   : No

Text #24
ID                                       : 27
Format                                   : PGS
Muxing mode                              : zlib
Codec ID                                 : S_HDMV/PGS
Codec ID/Info                            : Picture based subtitle format used on BDs/HD-DVDs
Duration                                 : 2 h 14 min
Bit rate                                 : 26.4 kb/s
Count of elements                        : 3124
Stream size                              : 25.4 MiB (0%)
Title                                    : Portuguese-PGS
Language                                 : Portuguese
Default                                  : No
Forced                                   : No

Text #25
ID                                       : 28
Format                                   : PGS
Muxing mode                              : zlib
Codec ID                                 : S_HDMV/PGS
Codec ID/Info                            : Picture based subtitle format used on BDs/HD-DVDs
Duration                                 : 2 h 14 min
Bit rate                                 : 34.1 kb/s
Count of elements                        : 3472
Stream size                              : 32.8 MiB (0%)
Title                                    : Portuguese-PGS
Language                                 : Portuguese
Default                                  : No
Forced                                   : No

Text #26
ID                                       : 29
Format                                   : PGS
Muxing mode                              : zlib
Codec ID                                 : S_HDMV/PGS
Codec ID/Info                            : Picture based subtitle format used on BDs/HD-DVDs
Duration                                 : 2 h 14 min
Bit rate                                 : 31.9 kb/s
Count of elements                        : 3526
Stream size                              : 30.7 MiB (0%)
Title                                    : Russian-PGS
Language                                 : Russian
Default                                  : No
Forced                                   : No

Text #27
ID                                       : 30
Format                                   : PGS
Muxing mode                              : zlib
Codec ID                                 : S_HDMV/PGS
Codec ID/Info                            : Picture based subtitle format used on BDs/HD-DVDs
Duration                                 : 2 h 14 min
Bit rate                                 : 28.8 kb/s
Count of elements                        : 3432
Stream size                              : 27.7 MiB (0%)
Title                                    : Romanian-PGS
Language                                 : Romanian
Default                                  : No
Forced                                   : No

Text #28
ID                                       : 31
Format                                   : PGS
Muxing mode                              : zlib
Codec ID                                 : S_HDMV/PGS
Codec ID/Info                            : Picture based subtitle format used on BDs/HD-DVDs
Duration                                 : 2 h 14 min
Bit rate                                 : 28.9 kb/s
Count of elements                        : 3526
Stream size                              : 27.8 MiB (0%)
Title                                    : Chinese-PGS
Language                                 : Chinese
Default                                  : No
Forced                                   : No

Text #29
ID                                       : 32
Format                                   : PGS
Muxing mode                              : zlib
Codec ID                                 : S_HDMV/PGS
Codec ID/Info                            : Picture based subtitle format used on BDs/HD-DVDs
Duration                                 : 2 h 14 min
Bit rate                                 : 28.6 kb/s
Count of elements                        : 2936
Stream size                              : 27.6 MiB (0%)
Title                                    : Slovak-PGS
Language                                 : Slovak
Default                                  : No
Forced                                   : No

Text #30
ID                                       : 33
Format                                   : PGS
Muxing mode                              : zlib
Codec ID                                 : S_HDMV/PGS
Codec ID/Info                            : Picture based subtitle format used on BDs/HD-DVDs
Duration                                 : 2 h 14 min
Bit rate                                 : 32.5 kb/s
Count of elements                        : 3516
Stream size                              : 31.3 MiB (0%)
Title                                    : Finnish-PGS
Language                                 : Finnish
Default                                  : No
Forced                                   : No

Text #31
ID                                       : 34
Format                                   : PGS
Muxing mode                              : zlib
Codec ID                                 : S_HDMV/PGS
Codec ID/Info                            : Picture based subtitle format used on BDs/HD-DVDs
Duration                                 : 2 h 14 min
Bit rate                                 : 31.3 kb/s
Count of elements                        : 2902
Stream size                              : 30.1 MiB (0%)
Title                                    : Swedish-PGS
Language                                 : Swedish
Default                                  : No
Forced                                   : No

Text #32
ID                                       : 35
Format                                   : PGS
Muxing mode                              : zlib
Codec ID                                 : S_HDMV/PGS
Codec ID/Info                            : Picture based subtitle format used on BDs/HD-DVDs
Duration                                 : 2 h 14 min
Bit rate                                 : 25.3 kb/s
Count of elements                        : 2938
Stream size                              : 24.4 MiB (0%)
Title                                    : Thai-PGS
Language                                 : Thai
Default                                  : No
Forced                                   : No

Text #33
ID                                       : 36
Format                                   : PGS
Muxing mode                              : zlib
Codec ID                                 : S_HDMV/PGS
Codec ID/Info                            : Picture based subtitle format used on BDs/HD-DVDs
Duration                                 : 2 h 14 min
Bit rate                                 : 33.1 kb/s
Count of elements                        : 2952
Stream size                              : 31.9 MiB (0%)
Title                                    : Turkish-PGS
Language                                 : Turkish
Default                                  : No
Forced                                   : No

Menu
00:00:00.000                             : en:Chapter 1
00:06:13.539                             : en:Chapter 2
00:10:38.346                             : en:Chapter 3
00:16:24.483                             : en:Chapter 4
00:22:14.666                             : en:Chapter 5
00:30:23.905                             : en:Chapter 6
00:38:44.363                             : en:Chapter 7
00:42:38.597                             : en:Chapter 8
00:47:36.687                             : en:Chapter 9
00:55:08.722                             : en:Chapter 10
01:04:35.830                             : en:Chapter 11
01:13:11.595                             : en:Chapter 12
01:21:13.201                             : en:Chapter 13
01:28:00.775                             : en:Chapter 14
01:33:25.308                             : en:Chapter 15
01:41:42.513                             : en:Chapter 16
01:44:11.870                             : en:Chapter 17
01:51:54.374                             : en:Chapter 18
01:58:36.442                             : en:Chapter 19
02:08:58.856                             : en:Chapter 20







种子百度云下载:
https://pan.baidu.com/s/1SobNjTP0VkW6mvhZGe5rLw 密码: p7kn

种子本地下载:
Downsizing.2017.2160p.BluRay.x265.10bit.SDR.DTS-HD.MA.7.1-SWTYBLZ.torrent (109.42 KB, 下载次数: 8)
本人发布的资源如果发现失效,可以私信联系我,能修复的我尽量修复。

0

主题

197

帖子

104

积分

中将

Rank: 2

UID
537813
积分
104
冰币
1088
威望
0
发表于 2018-5-11 17:15:52 | 显示全部楼层
谢谢、、、、、、、、、、、、、、、
回复 支持 反对

使用道具 举报

本版积分规则

手机版|小黑屋|冰冰网 ( 粤ICP备10024810号-1 )

GMT+8, 2018-5-24 12:09

Powered by www.discuz.net Discuz! X3.4

© 2001-2012 Comsenz Inc sitemap a67 s80


本站影视音乐资源来自互联网免费共享,仅供交流学习之用,版权归作者本人所有,如果侵犯了您的权益,请通知我们,邮箱地址mail@aapig.com
快速回复 返回顶部 返回列表