冰冰网

 找回密码
 开放注册,禁止乱回复
搜索
查看: 123|回复: 2

[动漫] 星河战队:火星叛国者【自带中字】 2017.2160p.BluRay.x264.8bit.SDR.DTS-SWTYBLZ 21GB

[复制链接]
 成长值: 150

7564

主题

7735

帖子

49万

积分

参谋

非凡-feifang

Rank: 8Rank: 8

UID
2
积分
495741
冰币
22305
威望
239

管理员

发表于 2018-3-31 21:58:23 | 显示全部楼层 |阅读模式 |        |

◎中文译名 星河战队:火星叛国者/星河战队:火星的叛徒
◎片  名 Starship Troopers: Traitor of Mars
◎日  期 2017
◎产  地 美国
◎影片类型 动作/科幻/动画
◎对  白 英语
◎上映日期 2017-08-21(美国)
◎IMDb评分  5.5/10 from 3,357 users
◎IMDB链接  www.aapig.com.cn www.imdb.com/title/tt6977240/
◎豆瓣评分 5.8/10 from 3,433 users
◎豆瓣链接 https://movie.douban.com/subject/27064923/
◎影片时长 100分钟
◎影片导演 荒牧伸志 Shinji Aramaki / 松本松子 Masaru Matsumoto
◎主要演员 卡斯帕·凡·迪恩 Casper Van Dien
      迪娜·迈耶 Dina Meyer
      德雷·戴维斯 DeRay Davis
      露西·克里斯蒂安 Luci Christian

◎资源介绍

  故事讲述约翰尼·里科(卡斯帕·凡·迪恩配音)降级发配到火星偏僻空间站,他本和士兵安稳培训,不料众人被一大批外星昆虫包围,战争一触即发。


Video
ID                                       : 1
Format                                   : AVC
Format/Info                              : Advanced Video Codec
Format profile                           : High@L5.1
Format settings                          : CABAC / 5 Ref Frames
Format settings, CABAC                   : Yes
Format settings, RefFrames               : 5 frames
Codec ID                                 : V_MPEG4/ISO/AVC
Duration                                 : 1 h 27 min
Bit rate                                 : 25.6 Mb/s
Width                                    : 3 840 pixels
Height                                   : 2 160 pixels
Display aspect ratio                     : 16:9
Frame rate mode                          : Constant
Frame rate                               : 23.976 (24000/1001) FPS
Color space                              : YUV
Chroma subsampling                       : 4:2:0
Bit depth                                : 8 bits
Scan type                                : Progressive
Bits/(Pixel*Frame)                       : 0.128
Stream size                              : 15.7 GiB (71%)
Title                                    : Starship.Troopers.Traitor.of.Mars.2017.2160p.BluRay.x264.8bit.SDR.DTS-HD.MA.TrueHD.7.1.Atmos-SWTYBLZ
Writing library                          : x264 core 148 r2748 97eaef2
Encoding settings                        : cabac=1 / ref=5 / deblock=1:1:1 / analyse=0x3:0x113 / me=umh / subme=10 / psy=1 / psy_rd=0.40:0.00 / mixed_ref=1 / me_range=48 / chroma_me=1 / trellis=2 / 8x8dct=1 / cqm=0 / deadzone=21,11 / fast_pskip=1 / chroma_qp_offset=-2 / threads=36 / lookahead_threads=4 / sliced_threads=0 / nr=0 / decimate=0 / interlaced=0 / bluray_compat=0 / constrained_intra=0 / bframes=5 / b_pyramid=2 / b_adapt=2 / b_bias=0 / direct=3 / weightb=1 / open_gop=0 / weightp=2 / keyint=250 / keyint_min=23 / scenecut=40 / intra_refresh=0 / rc_lookahead=50 / rc=crf / mbtree=1 / crf=18.0 / qcomp=0.60 / qpmin=0 / qpmax=69 / qpstep=4 / ip_ratio=1.40 / aq=1:0.60
Default                                  : Yes
Forced                                   : No

Audio #1
ID                                       : 2
Format                                   : TrueHD
Format profile                           : TrueHD+Atmos / TrueHD
Codec ID                                 : A_TRUEHD
Duration                                 : 1 h 27 min
Bit rate mode                            : Variable
Bit rate                                 : 5 128 kb/s
Maximum bit rate                         : 8 667 kb/s
Channel(s)                               : Object Based / 8 channels
Channel positions                        : Object Based / Front: L C R, Side: L R, Back: L R, LFE
Sampling rate                            :  / 48.0 kHz
Frame rate                               : 1 200.000 FPS (40 SPF)
Compression mode                         : Lossless
Stream size                              : 3.14 GiB (14%)
Title                                    : Starship.Troopers.Traitor.of.Mars.2017.2160p.BluRay.x264.8bit.SDR.DTS-HD.MA.TrueHD.7.1.Atmos-SWTYBLZ
Language                                 : English
Default                                  : Yes
Forced                                   : No

Audio #2
ID                                       : 3
Format                                   : DTS
Format/Info                              : Digital Theater Systems
Format profile                           : MA / Core
Codec ID                                 : A_DTS
Duration                                 : 1 h 27 min
Bit rate mode                            : Variable / Constant
Bit rate                                 : 4 014 kb/s / 1 509 kb/s
Channel(s)                               : 8 channels / 6 channels
Channel positions                        : Front: L C R, Side: L R, Back: L R, LFE / Front: L C R, Side: L R, LFE
Sampling rate                            : 48.0 kHz
Frame rate                               : 93.750 FPS (512 SPF)
Bit depth                                : 24 bits
Compression mode                         : Lossless / Lossy
Stream size                              : 2.46 GiB (11%)
Title                                    : Starship.Troopers.Traitor.of.Mars.2017.2160p.BluRay.x264.8bit.SDR.DTS-HD.MA.TrueHD.7.1.Atmos-SWTYBLZ
Language                                 : English
Default                                  : No
Forced                                   : No

Audio #3
ID                                       : 4
Format                                   : AC-3
Format/Info                              : Audio Coding 3
Codec ID                                 : A_AC3
Duration                                 : 1 h 27 min
Bit rate mode                            : Constant
Bit rate                                 : 640 kb/s
Channel(s)                               : 6 channels
Channel positions                        : Front: L C R, Side: L R, LFE
Sampling rate                            : 48.0 kHz
Frame rate                               : 31.250 FPS (1536 SPF)
Bit depth                                : 16 bits
Compression mode                         : Lossy
Stream size                              : 402 MiB (2%)
Title                                    : Starship.Troopers.Traitor.of.Mars.2017.2160p.BluRay.x264.8bit.SDR.DTS-HD.MA.TrueHD.7.1.Atmos-SWTYBLZ
Language                                 : English
Service kind                             : Complete Main
Default                                  : No
Forced                                   : No

Text #1
ID                                       : 5
Format                                   : UTF-8
Codec ID                                 : S_TEXT/UTF8
Codec ID/Info                            : UTF-8 Plain Text
Duration                                 : 1 h 22 min
Bit rate                                 : 57 b/s
Count of elements                        : 1129
Stream size                              : 34.6 KiB (0%)
Title                                    : English-SRT
Language                                 : English
Default                                  : Yes
Forced                                   : No

Text #2
ID                                       : 6
Format                                   : PGS
Muxing mode                              : zlib
Codec ID                                 : S_HDMV/PGS
Codec ID/Info                            : Picture based subtitle format used on BDs/HD-DVDs
Duration                                 : 1 h 27 min
Bit rate                                 : 31.0 kb/s
Count of elements                        : 2265
Stream size                              : 19.3 MiB (0%)
Title                                    : English-PGS
Language                                 : English
Default                                  : No
Forced                                   : No

Text #3
ID                                       : 7
Format                                   : PGS
Muxing mode                              : zlib
Codec ID                                 : S_HDMV/PGS
Codec ID/Info                            : Picture based subtitle format used on BDs/HD-DVDs
Duration                                 : 1 h 27 min
Bit rate                                 : 36.6 kb/s
Count of elements                        : 2670
Stream size                              : 22.8 MiB (0%)
Title                                    : English-SDH-PGS
Language                                 : English
Default                                  : No
Forced                                   : No

Text #4
ID                                       : 8
Format                                   : PGS
Muxing mode                              : zlib
Codec ID                                 : S_HDMV/PGS
Codec ID/Info                            : Picture based subtitle format used on BDs/HD-DVDs
Duration                                 : 1 h 27 min
Bit rate                                 : 31.0 kb/s
Count of elements                        : 2267
Stream size                              : 19.3 MiB (0%)
Title                                    : English-PGS
Language                                 : English
Default                                  : No
Forced                                   : No

Text #5
ID                                       : 9
Format                                   : PGS
Muxing mode                              : zlib
Codec ID                                 : S_HDMV/PGS
Codec ID/Info                            : Picture based subtitle format used on BDs/HD-DVDs
Duration                                 : 1 h 27 min
Bit rate                                 : 36.6 kb/s
Count of elements                        : 2670
Stream size                              : 22.8 MiB (0%)
Title                                    : English-SDH-PGS
Language                                 : English
Default                                  : No
Forced                                   : No

Text #6
ID                                       : 10
Format                                   : PGS
Muxing mode                              : zlib
Codec ID                                 : S_HDMV/PGS
Codec ID/Info                            : Picture based subtitle format used on BDs/HD-DVDs
Duration                                 : 1 h 27 min
Bit rate                                 : 31.5 kb/s
Count of elements                        : 2347
Stream size                              : 19.6 MiB (0%)
Title                                    : Chinese-PGS
Language                                 : Chinese
Default                                  : No
Forced                                   : No

Text #7
ID                                       : 11
Format                                   : PGS
Muxing mode                              : zlib
Codec ID                                 : S_HDMV/PGS
Codec ID/Info                            : Picture based subtitle format used on BDs/HD-DVDs
Duration                                 : 1 h 27 min
Bit rate                                 : 28.1 kb/s
Count of elements                        : 2347
Stream size                              : 17.5 MiB (0%)
Title                                    : Chinese-PGS
Language                                 : Chinese
Default                                  : No
Forced                                   : No

Text #8
ID                                       : 12
Format                                   : PGS
Muxing mode                              : zlib
Codec ID                                 : S_HDMV/PGS
Codec ID/Info                            : Picture based subtitle format used on BDs/HD-DVDs
Duration                                 : 1 h 27 min
Bit rate                                 : 28.4 kb/s
Count of elements                        : 2301
Stream size                              : 17.7 MiB (0%)
Title                                    : Czech-PGS
Language                                 : Czech
Default                                  : No
Forced                                   : No

Text #9
ID                                       : 13
Format                                   : PGS
Muxing mode                              : zlib
Codec ID                                 : S_HDMV/PGS
Codec ID/Info                            : Picture based subtitle format used on BDs/HD-DVDs
Duration                                 : 1 h 27 min
Bit rate                                 : 25.9 kb/s
Count of elements                        : 2331
Stream size                              : 16.1 MiB (0%)
Title                                    : Danish-PGS
Language                                 : Danish
Default                                  : No
Forced                                   : No

Text #10
ID                                       : 14
Format                                   : PGS
Muxing mode                              : zlib
Codec ID                                 : S_HDMV/PGS
Codec ID/Info                            : Picture based subtitle format used on BDs/HD-DVDs
Duration                                 : 1 h 27 min
Bit rate                                 : 30.8 kb/s
Count of elements                        : 2261
Stream size                              : 19.2 MiB (0%)
Title                                    : Dutch-PGS
Language                                 : Dutch
Default                                  : No
Forced                                   : No

Text #11
ID                                       : 15
Format                                   : PGS
Muxing mode                              : zlib
Codec ID                                 : S_HDMV/PGS
Codec ID/Info                            : Picture based subtitle format used on BDs/HD-DVDs
Duration                                 : 1 h 27 min
Bit rate                                 : 32.1 kb/s
Count of elements                        : 2337
Stream size                              : 20.0 MiB (0%)
Title                                    : Estonian-PGS
Language                                 : Estonian
Default                                  : No
Forced                                   : No

Text #12
ID                                       : 16
Format                                   : PGS
Muxing mode                              : zlib
Codec ID                                 : S_HDMV/PGS
Codec ID/Info                            : Picture based subtitle format used on BDs/HD-DVDs
Duration                                 : 1 h 27 min
Bit rate                                 : 31.6 kb/s
Count of elements                        : 2075
Stream size                              : 19.7 MiB (0%)
Title                                    : Finnish-PGS
Language                                 : Finnish
Default                                  : No
Forced                                   : No

Text #13
ID                                       : 17
Format                                   : PGS
Muxing mode                              : zlib
Codec ID                                 : S_HDMV/PGS
Codec ID/Info                            : Picture based subtitle format used on BDs/HD-DVDs
Duration                                 : 1 h 27 min
Bit rate                                 : 30.9 kb/s
Count of elements                        : 2329
Stream size                              : 19.2 MiB (0%)
Title                                    : French-PGS
Language                                 : French
Default                                  : No
Forced                                   : No

Text #14
ID                                       : 18
Format                                   : PGS
Muxing mode                              : zlib
Codec ID                                 : S_HDMV/PGS
Codec ID/Info                            : Picture based subtitle format used on BDs/HD-DVDs
Duration                                 : 1 h 27 min
Bit rate                                 : 36.4 kb/s
Count of elements                        : 2331
Stream size                              : 22.7 MiB (0%)
Title                                    : German-PGS
Language                                 : German
Default                                  : No
Forced                                   : No

Text #15
ID                                       : 19
Format                                   : PGS
Muxing mode                              : zlib
Codec ID                                 : S_HDMV/PGS
Codec ID/Info                            : Picture based subtitle format used on BDs/HD-DVDs
Duration                                 : 1 h 22 min
Bit rate                                 : 34.2 kb/s
Count of elements                        : 2345
Stream size                              : 20.3 MiB (0%)
Title                                    : Greek-PGS
Language                                 : Greek
Default                                  : No
Forced                                   : No

Text #16
ID                                       : 20
Format                                   : PGS
Muxing mode                              : zlib
Codec ID                                 : S_HDMV/PGS
Codec ID/Info                            : Picture based subtitle format used on BDs/HD-DVDs
Duration                                 : 1 h 27 min
Bit rate                                 : 34.0 kb/s
Count of elements                        : 2331
Stream size                              : 21.2 MiB (0%)
Title                                    : Italian-PGS
Language                                 : Italian
Default                                  : No
Forced                                   : No

Text #17
ID                                       : 21
Format                                   : PGS
Muxing mode                              : zlib
Codec ID                                 : S_HDMV/PGS
Codec ID/Info                            : Picture based subtitle format used on BDs/HD-DVDs
Duration                                 : 1 h 27 min
Bit rate                                 : 25.1 kb/s
Count of elements                        : 2349
Stream size                              : 15.7 MiB (0%)
Title                                    : Korean-PGS
Language                                 : Korean
Default                                  : No
Forced                                   : No

Text #18
ID                                       : 22
Format                                   : PGS
Muxing mode                              : zlib
Codec ID                                 : S_HDMV/PGS
Codec ID/Info                            : Picture based subtitle format used on BDs/HD-DVDs
Duration                                 : 1 h 27 min
Bit rate                                 : 29.0 kb/s
Count of elements                        : 2345
Stream size                              : 18.1 MiB (0%)
Title                                    : Latvian-PGS
Language                                 : Latvian
Default                                  : No
Forced                                   : No

Text #19
ID                                       : 23
Format                                   : PGS
Muxing mode                              : zlib
Codec ID                                 : S_HDMV/PGS
Codec ID/Info                            : Picture based subtitle format used on BDs/HD-DVDs
Duration                                 : 1 h 27 min
Bit rate                                 : 31.4 kb/s
Count of elements                        : 2345
Stream size                              : 19.6 MiB (0%)
Title                                    : Lithuanian-PGS
Language                                 : Lithuanian
Default                                  : No
Forced                                   : No

Text #20
ID                                       : 24
Format                                   : PGS
Muxing mode                              : zlib
Codec ID                                 : S_HDMV/PGS
Codec ID/Info                            : Picture based subtitle format used on BDs/HD-DVDs
Duration                                 : 1 h 27 min
Bit rate                                 : 29.5 kb/s
Count of elements                        : 2315
Stream size                              : 18.4 MiB (0%)
Title                                    : Norwegian-PGS
Language                                 : Norwegian
Default                                  : No
Forced                                   : No

Text #21
ID                                       : 25
Format                                   : PGS
Muxing mode                              : zlib
Codec ID                                 : S_HDMV/PGS
Codec ID/Info                            : Picture based subtitle format used on BDs/HD-DVDs
Duration                                 : 1 h 27 min
Bit rate                                 : 30.5 kb/s
Count of elements                        : 2321
Stream size                              : 19.0 MiB (0%)
Title                                    : Polish-PGS
Language                                 : Polish
Default                                  : No
Forced                                   : No

Text #22
ID                                       : 26
Format                                   : PGS
Muxing mode                              : zlib
Codec ID                                 : S_HDMV/PGS
Codec ID/Info                            : Picture based subtitle format used on BDs/HD-DVDs
Duration                                 : 1 h 27 min
Bit rate                                 : 33.4 kb/s
Count of elements                        : 2299
Stream size                              : 20.8 MiB (0%)
Title                                    : Portuguese-PGS
Language                                 : Portuguese
Default                                  : No
Forced                                   : No

Text #23
ID                                       : 27
Format                                   : PGS
Muxing mode                              : zlib
Codec ID                                 : S_HDMV/PGS
Codec ID/Info                            : Picture based subtitle format used on BDs/HD-DVDs
Duration                                 : 1 h 27 min
Bit rate                                 : 34.6 kb/s
Count of elements                        : 2331
Stream size                              : 21.6 MiB (0%)
Title                                    : Portuguese-PGS
Language                                 : Portuguese
Default                                  : No
Forced                                   : No

Text #24
ID                                       : 28
Format                                   : PGS
Muxing mode                              : zlib
Codec ID                                 : S_HDMV/PGS
Codec ID/Info                            : Picture based subtitle format used on BDs/HD-DVDs
Duration                                 : 1 h 27 min
Bit rate                                 : 30.8 kb/s
Count of elements                        : 2337
Stream size                              : 19.2 MiB (0%)
Title                                    : Romanian-PGS
Language                                 : Romanian
Default                                  : No
Forced                                   : No

Text #25
ID                                       : 29
Format                                   : PGS
Muxing mode                              : zlib
Codec ID                                 : S_HDMV/PGS
Codec ID/Info                            : Picture based subtitle format used on BDs/HD-DVDs
Duration                                 : 1 h 27 min
Bit rate                                 : 32.4 kb/s
Count of elements                        : 2361
Stream size                              : 20.2 MiB (0%)
Title                                    : Russian-PGS
Language                                 : Russian
Default                                  : No
Forced                                   : No

Text #26
ID                                       : 30
Format                                   : PGS
Muxing mode                              : zlib
Codec ID                                 : S_HDMV/PGS
Codec ID/Info                            : Picture based subtitle format used on BDs/HD-DVDs
Duration                                 : 1 h 27 min
Bit rate                                 : 33.4 kb/s
Count of elements                        : 2347
Stream size                              : 20.8 MiB (0%)
Title                                    : Spanish-PGS
Language                                 : Spanish
Default                                  : No
Forced                                   : No

Text #27
ID                                       : 31
Format                                   : PGS
Muxing mode                              : zlib
Codec ID                                 : S_HDMV/PGS
Codec ID/Info                            : Picture based subtitle format used on BDs/HD-DVDs
Duration                                 : 1 h 27 min
Bit rate                                 : 33.4 kb/s
Count of elements                        : 2339
Stream size                              : 20.8 MiB (0%)
Title                                    : Spanish-PGS
Language                                 : Spanish
Default                                  : No
Forced                                   : No

Text #28
ID                                       : 32
Format                                   : PGS
Muxing mode                              : zlib
Codec ID                                 : S_HDMV/PGS
Codec ID/Info                            : Picture based subtitle format used on BDs/HD-DVDs
Duration                                 : 1 h 27 min
Bit rate                                 : 27.6 kb/s
Count of elements                        : 1865
Stream size                              : 17.2 MiB (0%)
Title                                    : Swedish-PGS
Language                                 : Swedish
Default                                  : No
Forced                                   : No

Text #29
ID                                       : 33
Format                                   : PGS
Muxing mode                              : zlib
Codec ID                                 : S_HDMV/PGS
Codec ID/Info                            : Picture based subtitle format used on BDs/HD-DVDs
Duration                                 : 1 h 27 min
Bit rate                                 : 32.4 kb/s
Count of elements                        : 2347
Stream size                              : 20.2 MiB (0%)
Title                                    : Thai-PGS
Language                                 : Thai
Default                                  : No
Forced                                   : No

Text #30
ID                                       : 34
Format                                   : PGS
Muxing mode                              : zlib
Codec ID                                 : S_HDMV/PGS
Codec ID/Info                            : Picture based subtitle format used on BDs/HD-DVDs
Duration                                 : 1 h 27 min
Bit rate                                 : 32.9 kb/s
Count of elements                        : 2337
Stream size                              : 20.5 MiB (0%)
Title                                    : Turkish-PGS
Language                                 : Turkish
Default                                  : No
Forced                                   : No

Text #31
ID                                       : 35
Format                                   : PGS
Muxing mode                              : zlib
Codec ID                                 : S_HDMV/PGS
Codec ID/Info                            : Picture based subtitle format used on BDs/HD-DVDs
Duration                                 : 1 h 27 min
Bit rate                                 : 32.0 kb/s
Count of elements                        : 2313
Stream size                              : 20.0 MiB (0%)
Title                                    : Hungarian-PGS
Language                                 : Hungarian
Default                                  : No
Forced                                   : No

Menu
00:00:00.000                             : en:Chapter 1
00:06:52.787                             : en:Chapter 2
00:11:49.166                             : en:Chapter 3
00:15:55.829                             : en:Chapter 4
00:22:10.662                             : en:Chapter 5
00:28:16.277                             : en:Chapter 6
00:34:40.119                             : en:Chapter 7
00:38:02.029                             : en:Chapter 8
00:41:06.464                             : en:Chapter 9
00:51:04.478                             : en:Chapter 10
00:57:03.253                             : en:Chapter 11
01:02:22.280                             : en:Chapter 12
01:06:19.934                             : en:Chapter 13
01:13:16.100                             : en:Chapter 14
01:18:19.986                             : en:Chapter 15
01:22:40.872                             : en:Chapter 16







种子百度云下载:
https://pan.baidu.com/s/1gP7YbSRzhB00rUDyTuEanQ 密码: 9rii

种子本地下载:
Starship.Troopers.Traitor.of.Mars.2017.2160p.BluRay.x264.8bit.SDR.DTS-HD.MA.True.torrent (55.54 KB, 下载次数: 20)
本人发布的资源如果发现失效,可以私信联系我,能修复的我尽量修复。

0

主题

515

帖子

327

积分

部将

Rank: 3Rank: 3

UID
521687
积分
327
冰币
3519
威望
0
发表于 2018-4-9 15:06:41 | 显示全部楼层
好片子。谢谢楼主!!
回复 支持 反对

使用道具 举报

0

主题

297

帖子

65

积分

小将

Rank: 2

UID
543115
积分
65
冰币
705
威望
0
发表于 2018-4-17 10:05:42 | 显示全部楼层
谢谢楼主分享
回复 支持 反对

使用道具 举报

本版积分规则

手机版|小黑屋|冰冰网 ( 粤ICP备10024810号-1 )

GMT+8, 2018-5-24 12:06

Powered by www.discuz.net Discuz! X3.4

© 2001-2012 Comsenz Inc sitemap a67 s80


本站影视音乐资源来自互联网免费共享,仅供交流学习之用,版权归作者本人所有,如果侵犯了您的权益,请通知我们,邮箱地址mail@aapig.com
快速回复 返回顶部 返回列表