冰冰网

 找回密码
 开放注册,禁止乱回复

只需一步,快速开始

https://www.aapig.com/mp4-683334-p1-1.html
搜索
查看: 178|回复: 9

[欧美] 马戏之王【自带中字】 2017.1080p.BluRay.x264.TrueHD.7.1.Atmos-SWTYBLZ 8.19GB

[复制链接]
 成长值: 730

7986

主题

8158

帖子

49万

积分

参谋

非凡-feifang

Rank: 8Rank: 8

UID
2
积分
495974
冰币
23324
威望
242

管理员

发表于 2018-4-7 16:27:46 | 显示全部楼层 |阅读模式 |        |

◎中文译名 马戏之王/大娱乐家(港/台)/地球最强秀/地球最强马戏演员/全球最伟大的马戏演员/大秀之王
◎片  名 The Greatest Showman
◎日  期 2017
◎产  地 美国
◎影片类型 剧情/传记/歌舞
◎对  白 英语
◎上映日期 2017-12-20(美国)/2018-02-01(中国大陆)
◎IMDb评分  7.8/10 from 98,879 users
◎IMDB链接  www.aapig.com.cn www.imdb.com/title/tt1485796/
◎豆瓣评分 7.9/10 from 68,001 users
◎豆瓣链接 https://movie.douban.com/subject/3914513/
◎影片时长 105分钟/106分钟(中国大陆)
◎影片导演 迈克尔·格雷西 Michael Gracey
◎主要演员 休·杰克曼 Hugh Jackman
      米歇尔·威廉姆斯 Michelle Williams
      扎克·埃夫隆 Zac Efron
      赞达亚 Zendaya
      丽贝卡·弗格森 Rebecca Ferguson
      奥丝汀·约翰森 Austyn Johnson
      卡梅伦·丝蕾 Cameron Seely
      基拉·塞特尔 Keala Settle
      萨姆·汉弗莱 Sam Humphrey
      叶海亚·阿卜杜勒-迈丁 Yahya Abdul-Mateen II
      埃里克·安德森 Eric Anderson
      伊利斯·鲁宾 Ellis Rubin
      斯凯勒·杜恩 Skylar Dunn
      丹尼尔·埃维里奇 Daniel Everidge
      拉杜·斯平格尔 Radu Spinghel
      小森优作 Yusaku Komori
      丹尼尔·松 Danial Son
      保罗·斯帕克斯 Paul Sparks
      威尔·斯文森 Will Swenson

◎资源介绍

  《马戏之王》取材自真人真事,好莱坞全能巨星休·杰克曼在片中饰演“马戏团鼻祖”、传奇人物P.T.巴纳姆。故事讲述了身处社会底层的巴纳姆依靠自己无穷想象力和锲而不舍的精神,从经营博物馆到一手开创世界上第一家马戏团的故事。巴纳姆的奇思妙想最开始并不被大众所认可,几乎没人花钱欣赏,他的家人好友帮他度过一次次绝境。在经历了一系列挫折、与合作伙伴的分歧之后,秉持梦想的他终于成为全美甚至全世界最为知名的“造梦大师”。

◎获奖情况

  第90届奥斯卡金像奖  (2018)
  最佳原创歌曲(提名) 本吉·帕塞克 / 贾斯廷·保罗

  第75届金球奖  (2018)
  电影类 最佳音乐/喜剧片(提名)
  电影类 音乐/喜剧片最佳男主角(提名) 休·杰克曼
  电影类 最佳原创歌曲

  第23届美国评论家选择电影奖  (2018)
  最佳歌曲(提名)

Video
ID                                       : 1
Format                                   : AVC
Format/Info                              : Advanced Video Codec
Format profile                           : High@L4.1
Format settings                          : CABAC / 5 Ref Frames
Format settings, CABAC                   : Yes
Format settings, ReFrames                : 5 frames
Codec ID                                 : V_MPEG4/ISO/AVC
Duration                                 : 1 h 44 min
Bit rate                                 : 5 331 kb/s
Width                                    : 1 920 pixels
Height                                   : 800 pixels
Display aspect ratio                     : 2.40:1
Frame rate mode                          : Constant
Frame rate                               : 23.976 (24000/1001) FPS
Color space                              : YUV
Chroma subsampling                       : 4:2:0
Bit depth                                : 8 bits
Scan type                                : Progressive
Bits/(Pixel*Frame)                       : 0.145
Stream size                              : 3.90 GiB (48%)
Title                                    : The.Greatest.Showman.2017.1080p.BluRay.x264.TrueHD.7.1.Atmos-SWTYBLZ
Writing library                          : x264 core 155 r2901 7d0ff22
Encoding settings                        : cabac=1 / ref=5 / deblock=1:0:0 / analyse=0x3:0x133 / me=umh / subme=10 / psy=1 / psy_rd=1.00:0.00 / mixed_ref=1 / me_range=24 / chroma_me=1 / trellis=2 / 8x8dct=1 / cqm=0 / deadzone=21,11 / fast_pskip=1 / chroma_qp_offset=-2 / threads=24 / lookahead_threads=4 / sliced_threads=0 / nr=0 / decimate=1 / interlaced=0 / bluray_compat=0 / constrained_intra=0 / bframes=8 / b_pyramid=2 / b_adapt=2 / b_bias=0 / direct=3 / weightb=1 / open_gop=0 / weightp=2 / keyint=240 / keyint_min=24 / scenecut=40 / intra_refresh=0 / rc_lookahead=60 / rc=crf / mbtree=1 / crf=17.0 / qcomp=0.60 / qpmin=0 / qpmax=69 / qpstep=4 / ip_ratio=1.40 / aq=1:1.00
Language                                 : English
Default                                  : Yes
Forced                                   : No

Audio #1
ID                                       : 2
Format                                   : TrueHD
Format profile                           : TrueHD+Atmos / TrueHD
Codec ID                                 : A_TRUEHD
Duration                                 : 1 h 44 min
Bit rate mode                            : Variable
Bit rate                                 : 4 572 kb/s
Maximum bit rate                         : 7 779 kb/s
Channel(s)                               : Object Based / 8 channels
Channel positions                        : Object Based / Front: L C R, Side: L R, Back: L R, LFE
Sampling rate                            :  / 48.0 kHz
Frame rate                               : 1 200.000 FPS (40 SPF)
Compression mode                         : Lossless
Stream size                              : 3.35 GiB (41%)
Title                                    : The.Greatest.Showman.2017.1080p.BluRay.x264.TrueHD.7.1.Atmos-SWTYBLZ
Language                                 : English
Default                                  : Yes
Forced                                   : No

Audio #2
ID                                       : 3
Format                                   : AC-3
Format/Info                              : Audio Coding 3
Codec ID                                 : A_AC3
Duration                                 : 1 h 44 min
Bit rate mode                            : Constant
Bit rate                                 : 640 kb/s
Channel(s)                               : 6 channels
Channel positions                        : Front: L C R, Side: L R, LFE
Sampling rate                            : 48.0 kHz
Frame rate                               : 31.250 FPS (1536 SPF)
Bit depth                                : 16 bits
Compression mode                         : Lossy
Stream size                              : 480 MiB (6%)
Title                                    : The.Greatest.Showman.2017.1080p.BluRay.x264.TrueHD.7.1.Atmos-SWTYBLZ
Language                                 : English
Service kind                             : Complete Main
Default                                  : No
Forced                                   : No

Text #1
ID                                       : 4
Format                                   : UTF-8
Codec ID                                 : S_TEXT/UTF8
Codec ID/Info                            : UTF-8 Plain Text
Duration                                 : 1 h 32 min
Bit rate                                 : 40 b/s
Count of elements                        : 950
Stream size                              : 27.5 KiB (0%)
Title                                    : English-SRT
Language                                 : English
Default                                  : Yes
Forced                                   : No

Text #2
ID                                       : 5
Format                                   : UTF-8
Codec ID                                 : S_TEXT/UTF8
Codec ID/Info                            : UTF-8 Plain Text
Duration                                 : 1 h 43 min
Bit rate                                 : 84 b/s
Count of elements                        : 1864
Stream size                              : 64.3 KiB (0%)
Title                                    : English-SDH-SRT
Language                                 : English
Default                                  : No
Forced                                   : No

Text #3
ID                                       : 6
Format                                   : PGS
Muxing mode                              : zlib
Codec ID                                 : S_HDMV/PGS
Codec ID/Info                            : Picture based subtitle format used on BDs/HD-DVDs
Duration                                 : 1 h 43 min
Bit rate                                 : 51.5 kb/s
Count of elements                        : 3728
Stream size                              : 38.1 MiB (0%)
Title                                    : English-PGS
Language                                 : English
Default                                  : No
Forced                                   : No

Text #4
ID                                       : 7
Format                                   : PGS
Muxing mode                              : zlib
Codec ID                                 : S_HDMV/PGS
Codec ID/Info                            : Picture based subtitle format used on BDs/HD-DVDs
Duration                                 : 1 h 43 min
Bit rate                                 : 38.9 kb/s
Count of elements                        : 2932
Stream size                              : 28.9 MiB (0%)
Title                                    : Spanish-PGS
Language                                 : Spanish
Default                                  : No
Forced                                   : No

Text #5
ID                                       : 8
Format                                   : PGS
Muxing mode                              : zlib
Codec ID                                 : S_HDMV/PGS
Codec ID/Info                            : Picture based subtitle format used on BDs/HD-DVDs
Duration                                 : 1 h 44 min
Bit rate                                 : 41.9 kb/s
Count of elements                        : 3367
Stream size                              : 31.3 MiB (0%)
Title                                    : French-PGS
Language                                 : French
Default                                  : No
Forced                                   : No

Text #6
ID                                       : 9
Format                                   : PGS
Muxing mode                              : zlib
Codec ID                                 : S_HDMV/PGS
Codec ID/Info                            : Picture based subtitle format used on BDs/HD-DVDs
Duration                                 : 1 h 43 min
Bit rate                                 : 33.0 kb/s
Count of elements                        : 2706
Stream size                              : 24.5 MiB (0%)
Title                                    : French-PGS
Language                                 : French
Default                                  : No
Forced                                   : No

Text #7
ID                                       : 10
Format                                   : PGS
Muxing mode                              : zlib
Codec ID                                 : S_HDMV/PGS
Codec ID/Info                            : Picture based subtitle format used on BDs/HD-DVDs
Duration                                 : 1 h 43 min
Bit rate                                 : 38.0 kb/s
Count of elements                        : 2984
Stream size                              : 28.2 MiB (0%)
Title                                    : Spanish-PGS
Language                                 : Spanish
Default                                  : No
Forced                                   : No

Text #8
ID                                       : 11
Format                                   : PGS
Muxing mode                              : zlib
Codec ID                                 : S_HDMV/PGS
Codec ID/Info                            : Picture based subtitle format used on BDs/HD-DVDs
Duration                                 : 1 h 43 min
Bit rate                                 : 33.8 kb/s
Count of elements                        : 2254
Stream size                              : 25.1 MiB (0%)
Title                                    : Danish-PGS
Language                                 : Danish
Default                                  : No
Forced                                   : No

Text #9
ID                                       : 12
Format                                   : PGS
Muxing mode                              : zlib
Codec ID                                 : S_HDMV/PGS
Codec ID/Info                            : Picture based subtitle format used on BDs/HD-DVDs
Duration                                 : 1 h 43 min
Bit rate                                 : 36.0 kb/s
Count of elements                        : 2556
Stream size                              : 26.7 MiB (0%)
Title                                    : Dutch-PGS
Language                                 : Dutch
Default                                  : No
Forced                                   : No

Text #10
ID                                       : 13
Format                                   : PGS
Muxing mode                              : zlib
Codec ID                                 : S_HDMV/PGS
Codec ID/Info                            : Picture based subtitle format used on BDs/HD-DVDs
Duration                                 : 1 h 43 min
Bit rate                                 : 36.4 kb/s
Count of elements                        : 2964
Stream size                              : 27.0 MiB (0%)
Title                                    : Finnish-PGS
Language                                 : Finnish
Default                                  : No
Forced                                   : No

Text #11
ID                                       : 14
Format                                   : PGS
Muxing mode                              : zlib
Codec ID                                 : S_HDMV/PGS
Codec ID/Info                            : Picture based subtitle format used on BDs/HD-DVDs
Duration                                 : 1 h 43 min
Bit rate                                 : 41.2 kb/s
Count of elements                        : 2602
Stream size                              : 30.6 MiB (0%)
Title                                    : German-PGS
Language                                 : German
Default                                  : No
Forced                                   : No

Text #12
ID                                       : 15
Format                                   : PGS
Muxing mode                              : zlib
Codec ID                                 : S_HDMV/PGS
Codec ID/Info                            : Picture based subtitle format used on BDs/HD-DVDs
Duration                                 : 1 h 43 min
Bit rate                                 : 41.0 kb/s
Count of elements                        : 2948
Stream size                              : 30.4 MiB (0%)
Title                                    : Italian-PGS
Language                                 : Italian
Default                                  : No
Forced                                   : No

Text #13
ID                                       : 16
Format                                   : PGS
Muxing mode                              : zlib
Codec ID                                 : S_HDMV/PGS
Codec ID/Info                            : Picture based subtitle format used on BDs/HD-DVDs
Duration                                 : 1 h 43 min
Bit rate                                 : 39.3 kb/s
Count of elements                        : 2978
Stream size                              : 29.2 MiB (0%)
Title                                    : Norwegian-PGS
Language                                 : Norwegian
Default                                  : No
Forced                                   : No

Text #14
ID                                       : 17
Format                                   : PGS
Muxing mode                              : zlib
Codec ID                                 : S_HDMV/PGS
Codec ID/Info                            : Picture based subtitle format used on BDs/HD-DVDs
Duration                                 : 1 h 43 min
Bit rate                                 : 39.7 kb/s
Count of elements                        : 2966
Stream size                              : 29.5 MiB (0%)
Title                                    : Swedish-PGS
Language                                 : Swedish
Default                                  : No
Forced                                   : No

Text #15
ID                                       : 18
Format                                   : PGS
Muxing mode                              : zlib
Codec ID                                 : S_HDMV/PGS
Codec ID/Info                            : Picture based subtitle format used on BDs/HD-DVDs
Duration                                 : 1 h 43 min
Bit rate                                 : 30.5 kb/s
Count of elements                        : 3018
Stream size                              : 22.6 MiB (0%)
Title                                    : Chinese-PGS
Language                                 : Chinese
Default                                  : No
Forced                                   : No

Text #16
ID                                       : 19
Format                                   : PGS
Muxing mode                              : zlib
Codec ID                                 : S_HDMV/PGS
Codec ID/Info                            : Picture based subtitle format used on BDs/HD-DVDs
Duration                                 : 1 h 44 min
Bit rate                                 : 39.4 kb/s
Count of elements                        : 3032
Stream size                              : 29.5 MiB (0%)
Title                                    : Czech-PGS
Language                                 : Czech
Default                                  : No
Forced                                   : No

Text #17
ID                                       : 20
Format                                   : PGS
Muxing mode                              : zlib
Codec ID                                 : S_HDMV/PGS
Codec ID/Info                            : Picture based subtitle format used on BDs/HD-DVDs
Duration                                 : 1 h 43 min
Bit rate                                 : 29.2 kb/s
Count of elements                        : 2994
Stream size                              : 21.7 MiB (0%)
Title                                    : Chinese-PGS
Language                                 : Chinese
Default                                  : No
Forced                                   : No

Text #18
ID                                       : 21
Format                                   : PGS
Muxing mode                              : zlib
Codec ID                                 : S_HDMV/PGS
Codec ID/Info                            : Picture based subtitle format used on BDs/HD-DVDs
Duration                                 : 1 h 43 min
Bit rate                                 : 34.3 kb/s
Count of elements                        : 2852
Stream size                              : 25.5 MiB (0%)
Title                                    : Polish-PGS
Language                                 : Polish
Default                                  : No
Forced                                   : No

Text #19
ID                                       : 22
Format                                   : PGS
Muxing mode                              : zlib
Codec ID                                 : S_HDMV/PGS
Codec ID/Info                            : Picture based subtitle format used on BDs/HD-DVDs
Duration                                 : 1 h 36 min
Bit rate                                 : 54.2 kb/s
Count of elements                        : 2359
Stream size                              : 37.5 MiB (0%)
Title                                    : English-COMMENTARY-PGS
Language                                 : English
Default                                  : No
Forced                                   : No

Text #20
ID                                       : 23
Format                                   : PGS
Muxing mode                              : zlib
Codec ID                                 : S_HDMV/PGS
Codec ID/Info                            : Picture based subtitle format used on BDs/HD-DVDs
Duration                                 : 1 h 44 min
Bit rate                                 : 50.4 kb/s
Count of elements                        : 2488
Stream size                              : 37.7 MiB (0%)
Title                                    : Spanish-COMMENTARY-PGS
Language                                 : Spanish
Default                                  : No
Forced                                   : No

Text #21
ID                                       : 24
Format                                   : PGS
Muxing mode                              : zlib
Codec ID                                 : S_HDMV/PGS
Codec ID/Info                            : Picture based subtitle format used on BDs/HD-DVDs
Duration                                 : 1 h 44 min
Bit rate                                 : 47.0 kb/s
Count of elements                        : 2379
Stream size                              : 35.1 MiB (0%)
Title                                    : French-COMMENTARY-PGS
Language                                 : French
Default                                  : No
Forced                                   : No

Text #22
ID                                       : 25
Format                                   : PGS
Muxing mode                              : zlib
Codec ID                                 : S_HDMV/PGS
Codec ID/Info                            : Picture based subtitle format used on BDs/HD-DVDs
Duration                                 : 1 h 44 min
Bit rate                                 : 48.0 kb/s
Count of elements                        : 2377
Stream size                              : 35.9 MiB (0%)
Title                                    : Spanish-COMMENTARY-PGS
Language                                 : Spanish
Default                                  : No
Forced                                   : No

Text #23
ID                                       : 26
Format                                   : PGS
Muxing mode                              : zlib
Codec ID                                 : S_HDMV/PGS
Codec ID/Info                            : Picture based subtitle format used on BDs/HD-DVDs
Duration                                 : 1 h 44 min
Bit rate                                 : 41.8 kb/s
Count of elements                        : 2370
Stream size                              : 31.3 MiB (0%)
Title                                    : Danish-COMMENTARY-PGS
Language                                 : Danish
Default                                  : No
Forced                                   : No

Text #24
ID                                       : 27
Format                                   : PGS
Muxing mode                              : zlib
Codec ID                                 : S_HDMV/PGS
Codec ID/Info                            : Picture based subtitle format used on BDs/HD-DVDs
Duration                                 : 1 h 44 min
Bit rate                                 : 48.0 kb/s
Count of elements                        : 2372
Stream size                              : 35.9 MiB (0%)
Title                                    : Dutch-COMMENTARY-PGS
Language                                 : Dutch
Default                                  : No
Forced                                   : No

Text #25
ID                                       : 28
Format                                   : PGS
Muxing mode                              : zlib
Codec ID                                 : S_HDMV/PGS
Codec ID/Info                            : Picture based subtitle format used on BDs/HD-DVDs
Duration                                 : 1 h 44 min
Bit rate                                 : 44.5 kb/s
Count of elements                        : 2372
Stream size                              : 33.3 MiB (0%)
Title                                    : Finnish-COMMENTARY-PGS
Language                                 : Finnish
Default                                  : No
Forced                                   : No

Text #26
ID                                       : 29
Format                                   : PGS
Muxing mode                              : zlib
Codec ID                                 : S_HDMV/PGS
Codec ID/Info                            : Picture based subtitle format used on BDs/HD-DVDs
Duration                                 : 1 h 44 min
Bit rate                                 : 50.7 kb/s
Count of elements                        : 2377
Stream size                              : 37.9 MiB (0%)
Title                                    : German-COMMENTARY-PGS
Language                                 : German
Default                                  : No
Forced                                   : No

Text #27
ID                                       : 30
Format                                   : PGS
Muxing mode                              : zlib
Codec ID                                 : S_HDMV/PGS
Codec ID/Info                            : Picture based subtitle format used on BDs/HD-DVDs
Duration                                 : 1 h 44 min
Bit rate                                 : 47.3 kb/s
Count of elements                        : 2372
Stream size                              : 35.4 MiB (0%)
Title                                    : Italian-COMMENTARY-PGS
Language                                 : Italian
Default                                  : No
Forced                                   : No

Text #28
ID                                       : 31
Format                                   : PGS
Muxing mode                              : zlib
Codec ID                                 : S_HDMV/PGS
Codec ID/Info                            : Picture based subtitle format used on BDs/HD-DVDs
Duration                                 : 1 h 44 min
Bit rate                                 : 45.9 kb/s
Count of elements                        : 2372
Stream size                              : 34.4 MiB (0%)
Title                                    : Norwegian-COMMENTARY-PGS
Language                                 : Norwegian
Default                                  : No
Forced                                   : No

Text #29
ID                                       : 32
Format                                   : PGS
Muxing mode                              : zlib
Codec ID                                 : S_HDMV/PGS
Codec ID/Info                            : Picture based subtitle format used on BDs/HD-DVDs
Duration                                 : 1 h 44 min
Bit rate                                 : 46.6 kb/s
Count of elements                        : 2370
Stream size                              : 34.9 MiB (0%)
Title                                    : Swedish-COMMENTARY-PGS
Language                                 : Swedish
Default                                  : No
Forced                                   : No

Text #30
ID                                       : 33
Format                                   : PGS
Muxing mode                              : zlib
Codec ID                                 : S_HDMV/PGS
Codec ID/Info                            : Picture based subtitle format used on BDs/HD-DVDs
Duration                                 : 1 h 43 min
Bit rate                                 : 22.6 kb/s
Count of elements                        : 2670
Stream size                              : 16.8 MiB (0%)
Title                                    : Japanese-PGS
Language                                 : Japanese
Default                                  : No
Forced                                   : No

Text #31
ID                                       : 34
Format                                   : PGS
Muxing mode                              : zlib
Codec ID                                 : S_HDMV/PGS
Codec ID/Info                            : Picture based subtitle format used on BDs/HD-DVDs
Duration                                 : 1 h 36 min
Bit rate                                 : 10.5 kb/s
Count of elements                        : 1028
Stream size                              : 7.24 MiB (0%)
Title                                    : Japanese-FORCED-PGS
Language                                 : Japanese
Default                                  : No
Forced                                   : No

Text #32
ID                                       : 35
Format                                   : PGS
Muxing mode                              : zlib
Codec ID                                 : S_HDMV/PGS
Codec ID/Info                            : Picture based subtitle format used on BDs/HD-DVDs
Duration                                 : 1 h 44 min
Bit rate                                 : 29.0 kb/s
Count of elements                        : 1950
Stream size                              : 21.7 MiB (0%)
Title                                    : Japanese-PGS
Language                                 : Japanese
Default                                  : No
Forced                                   : No

Text #33
ID                                       : 36
Format                                   : PGS
Muxing mode                              : zlib
Codec ID                                 : S_HDMV/PGS
Codec ID/Info                            : Picture based subtitle format used on BDs/HD-DVDs
Duration                                 : 1 h 43 min
Bit rate                                 : 167 kb/s
Count of elements                        : 5256
Stream size                              : 124 MiB (1%)
Title                                    : English
Language                                 : English
Default                                  : No
Forced                                   : No

Menu
00:00:00.000                             : en:Chapter 1
00:03:21.618                             : en:Chapter 2
00:11:33.984                             : en:Chapter 3
00:16:21.313                             : en:Chapter 4
00:21:13.730                             : en:Chapter 5
00:25:04.169                             : en:Chapter 6
00:32:10.178                             : en:Chapter 7
00:36:09.625                             : en:Chapter 8
00:41:38.412                             : en:Chapter 9
00:44:41.053                             : en:Chapter 10
00:48:24.151                             : en:Chapter 11
00:53:11.146                             : en:Chapter 12
00:56:20.710                             : en:Chapter 13
01:01:34.816                             : en:Chapter 14
01:07:33.883                             : en:Chapter 15
01:12:00.983                             : en:Chapter 16
01:18:23.699                             : en:Chapter 17
01:22:07.130                             : en:Chapter 18
01:29:04.797                             : en:Chapter 19
01:37:09.448                             : en:Chapter 20





种子百度云下载:
https://pan.baidu.com/s/18vZFxUUclsXBlys4cpAbFg 密码: kkbq

种子本地下载:
The.Greatest.Showman.2017.1080p.BluRay.x264.TrueHD.7.1.Atmos-SWTYBLZ.torrent (82.49 KB, 下载次数: 55)
本人发布的资源如果发现失效,可以私信联系我,能修复的我尽量修复。

0

主题

1412

帖子

225

积分

部将

Rank: 3Rank: 3

UID
535229
积分
225
冰币
2379
威望
0
发表于 2018-4-8 09:12:32 | 显示全部楼层
谢谢楼主分享好片
回复 支持 反对

使用道具 举报

0

主题

5184

帖子

631

积分

大将

Rank: 4

UID
531243
积分
631
冰币
6879
威望
0
发表于 2018-4-8 19:43:50 | 显示全部楼层
谢谢版主!幸苦啦!
回复 支持 反对

使用道具 举报

0

主题

5184

帖子

631

积分

大将

Rank: 4

UID
531243
积分
631
冰币
6879
威望
0
发表于 2018-4-9 16:50:25 | 显示全部楼层
谢谢版主!幸苦啦!
回复 支持 反对

使用道具 举报

0

主题

5184

帖子

631

积分

大将

Rank: 4

UID
531243
积分
631
冰币
6879
威望
0
发表于 2018-4-11 20:37:14 | 显示全部楼层
谢谢版主!幸苦啦!
回复 支持 反对

使用道具 举报

1

主题

77

帖子

-23

积分

民兵

UID
321522
积分
-23
冰币
-268
威望
0
发表于 2018-4-12 08:55:42 | 显示全部楼层
感谢楼主分享
回复 支持 反对

使用道具 举报

0

主题

2

帖子

-33

积分

平民

UID
547121
积分
-33
冰币
-365
威望
0
发表于 2018-6-13 19:23:15 | 显示全部楼层
迅雷下载不了
回复 支持 反对

使用道具 举报

本版积分规则

手机版|小黑屋|冰冰网 ( 粤ICP备10024810号-1 )

GMT+8, 2018-7-21 08:11

Powered by www.discuz.net Discuz! X3.4

© 2001-2012 Comsenz Inc sitemap a67 s80


本站影视音乐资源来自互联网免费共享,仅供交流学习之用,版权归作者本人所有,如果侵犯了您的权益,请通知我们,邮箱地址mail@aapig.com
快速回复 返回顶部 返回列表