冰冰网

 找回密码
 开放注册,禁止乱回复
https://www.aapig.com/mp4-683334-p1-1.html
搜索
查看: 172|回复: 10

[欧美] 慈悲圣诞 Mercy.Christmas.2017.1080p.BluRay.x264.DTS-MT 6.72GB

[复制链接]
 成长值: 690

7955

主题

8127

帖子

49万

积分

参谋

非凡-feifang

Rank: 8Rank: 8

UID
2
积分
495958
冰币
23261
威望
242

管理员

发表于 2018-4-8 16:48:44 | 显示全部楼层 |阅读模式 |        |
1.jpg
◎中文译名 慈悲圣诞
◎片  名 Mercy Christmas
◎日  期 2017
◎产  地 美国
◎影片类型 喜剧/动作/恐怖
◎对  白 英语
◎上映日期 2017-11-28(美国)
◎IMDb评分  6.9/10 from 54 users
◎IMDB链接  www.aapig.com.cn www.imdb.com/title/tt4906164/
◎影片时长 83min
◎影片导演 Ryan Nelson
◎主要演员 Casey O'Keefe
      Mackenzie Coffman

◎资源介绍

  Michael Briskett meets the perfect woman and his ideal Christmas dream comes true when she invites him to her family's holiday celebration. Michael's dream shatters once he realizes that HE will be the Christmas dinner.

Video
ID                                       : 1
Format                                   : AVC
Format/Info                              : Advanced Video Codec
Format profile                           : High@L4.1
Format settings                          : CABAC / 4 Ref Frames
Format settings, CABAC                   : Yes
Format settings, ReFrames                : 4 frames
Codec ID                                 : V_MPEG4/ISO/AVC
Duration                                 : 1 h 23 min
Bit rate                                 : 10.0 Mb/s
Width                                    : 1 920 pixels
Height                                   : 1 080 pixels
Display aspect ratio                     : 16:9
Frame rate mode                          : Constant
Frame rate                               : 23.976 (24000/1001) FPS
Color space                              : YUV
Chroma subsampling                       : 4:2:0
Bit depth                                : 8 bits
Scan type                                : Progressive
Bits/(Pixel*Frame)                       : 0.202
Stream size                              : 5.84 GiB (87%)
Title                                    : Mercy.Christmas.2017.1080p.BluRay.x264.DTS-MT
Writing library                          : x264 core 155 r2901 7d0ff22
Encoding settings                        : cabac=1 / ref=4 / deblock=1:0:0 / analyse=0x3:0x113 / me=umh / subme=10 / psy=1 / psy_rd=1.05:0.10 / mixed_ref=1 / me_range=48 / chroma_me=1 / trellis=2 / 8x8dct=1 / cqm=0 / deadzone=21,11 / fast_pskip=0 / chroma_qp_offset=-2 / threads=12 / lookahead_threads=1 / sliced_threads=0 / nr=0 / decimate=1 / interlaced=0 / bluray_compat=0 / constrained_intra=0 / bframes=6 / b_pyramid=2 / b_adapt=2 / b_bias=0 / direct=3 / weightb=1 / open_gop=0 / weightp=2 / keyint=250 / keyint_min=23 / scenecut=40 / intra_refresh=0 / rc=2pass / mbtree=0 / bitrate=10038 / ratetol=2.0 / qcomp=0.70 / qpmin=0 / qpmax=69 / qpstep=4 / cplxblur=20.0 / qblur=0.5 / ip_ratio=1.40 / pb_ratio=1.30 / aq=2:1.00
Language                                 : English
Default                                  : Yes
Forced                                   : No

Audio
ID                                       : 2
Format                                   : DTS
Format/Info                              : Digital Theater Systems
Codec ID                                 : A_DTS
Duration                                 : 1 h 23 min
Bit rate mode                            : Constant
Bit rate                                 : 1 509 kb/s
Channel(s)                               : 6 channels
Channel positions                        : Front: L C R, Side: L R, LFE
Sampling rate                            : 48.0 kHz
Frame rate                               : 93.750 FPS (512 SPF)
Bit depth                                : 24 bits
Compression mode                         : Lossy
Stream size                              : 901 MiB (13%)
Title                                    : Mercy.Christmas.2017.1080p.BluRay.x264.DTS-MT
Language                                 : English
Default                                  : Yes
Forced                                   : No

Text
ID                                       : 3
Format                                   : UTF-8
Codec ID                                 : S_TEXT/UTF8
Codec ID/Info                            : UTF-8 Plain Text
Duration                                 : 1 h 18 min
Bit rate                                 : 56 b/s
Count of elements                        : 1211
Stream size                              : 32.4 KiB (0%)
Language                                 : English
Default                                  : Yes
Forced                                   : No



  
种子本地下载:
Mercy.Christmas.2017.1080p.BluRay.x264.DTS-MT.torrent (67.76 KB, 下载次数: 11)
本人发布的资源如果发现失效,可以私信联系我,能修复的我尽量修复。

0

主题

5135

帖子

623

积分

大将

Rank: 4

UID
531243
积分
623
冰币
6791
威望
0
发表于 2018-4-8 19:42:00 | 显示全部楼层
谢谢版主!幸苦啦!
回复 支持 反对

使用道具 举报

0

主题

545

帖子

349

积分

部将

Rank: 3Rank: 3

UID
521687
积分
349
冰币
3747
威望
0
发表于 2018-4-9 15:07:46 | 显示全部楼层
感谢楼主。。很好的片子。。
回复 支持 反对

使用道具 举报

0

主题

5135

帖子

623

积分

大将

Rank: 4

UID
531243
积分
623
冰币
6791
威望
0
发表于 2018-4-9 16:49:10 | 显示全部楼层
谢谢版主!幸苦啦!
回复 支持 反对

使用道具 举报

0

主题

485

帖子

65

积分

小将

Rank: 2

UID
546801
积分
65
冰币
669
威望
0
发表于 2018-4-10 19:25:38 | 显示全部楼层
谢谢版主!幸苦啦!
回复 支持 反对

使用道具 举报

0

主题

5135

帖子

623

积分

大将

Rank: 4

UID
531243
积分
623
冰币
6791
威望
0
发表于 2018-4-11 20:35:31 | 显示全部楼层
谢谢版主!幸苦啦!
回复 支持 反对

使用道具 举报

1

主题

77

帖子

-23

积分

民兵

UID
321522
积分
-23
冰币
-268
威望
0
发表于 2018-4-12 08:53:19 | 显示全部楼层
感谢楼主分享
回复 支持 反对

使用道具 举报

0

主题

249

帖子

79

积分

小将

Rank: 2

UID
553513
积分
79
冰币
814
威望
0
发表于 2018-4-12 13:38:01 | 显示全部楼层
不错的片子,谢谢分享
回复 支持 反对

使用道具 举报

4

主题

1142

帖子

1059

积分

大将

Rank: 4

UID
477285
积分
1059
冰币
11476
威望
0
发表于 2018-4-15 07:19:18 | 显示全部楼层
感谢楼主。。很好的片子
回复 支持 反对

使用道具 举报

本版积分规则

手机版|小黑屋|冰冰网 ( 粤ICP备10024810号-1 )

GMT+8, 2018-7-17 12:19

Powered by www.discuz.net Discuz! X3.4

© 2001-2012 Comsenz Inc sitemap a67 s80


本站影视音乐资源来自互联网免费共享,仅供交流学习之用,版权归作者本人所有,如果侵犯了您的权益,请通知我们,邮箱地址mail@aapig.com
快速回复 返回顶部 返回列表