冰冰网

 找回密码
 开放注册,禁止乱回复
https://www.aapig.com/mp4-683334-p1-1.html
搜索
查看: 293|回复: 10

[欧美] 秘密手稿 The.Secret.Scripture.2016.1080p.BluRay.x264.DTS-HD.MA.5.1-FGT 7.5GB

[复制链接]
 成长值: 680

7950

主题

8122

帖子

49万

积分

参谋

非凡-feifang

Rank: 8Rank: 8

UID
2
积分
495955
冰币
23250
威望
242

管理员

发表于 2018-4-10 21:53:14 | 显示全部楼层 |阅读模式 |        |
1.jpg
◎中文译名 秘密手稿/失落的浪漫手稿(港)
◎片  名 The Secret Scripture
◎日  期 2016
◎产  地 爱尔兰
◎影片类型 剧情/历史/爱情
◎对  白 英语
◎上映日期 2016-09-10(多伦多电影节)/2017-03-24(爱尔兰)
◎豆瓣评分 6.2/10 from 194 users
◎豆瓣链接 https://movie.douban.com/subject/25773361/
◎影片时长 108分钟
◎影片导演 吉姆·谢里丹 Jim Sheridan
◎主要演员 鲁妮·玛拉 Rooney Mara
      瓦妮莎·雷德格瑞夫 Vanessa Redgrave
      提奥·詹姆斯 Theo James
      艾瑞克·巴纳 Eric Bana
      杰克·莱诺 Jack Reynor
      艾丹·特纳 Aidan Turner
      苏珊·林奇 Susan Lynch
      阿德里安·敦巴 Adrian Dunbar
      汤姆-沃恩-劳勒 Tom Vaughan-Lawlor
      查尔斯·凯利 Charles Kelly
      Omar Sharif Jr.
      Pauline McLynn
      Brian Fortune
      尼卡·麦圭根 Nika McGuigan
      Laurence O'Fuarain

◎资源介绍

  改编自爱尔兰作家塞巴斯蒂安·巴里的同名小说,讲述了一位名叫罗珊·麦克纳蒂的女人一生的经历。 罗珊已经在一家精神病医院生活了超过40年,她将自己在医院的生活经历和使她被送入医院的秘密原因都记录在她的日记中。随着医院面临拆迁,有一个叫格林的医生开始为她做评估,决定她是否能够重返社会,却在过程中了解到了她真实的人生,发现她虽饱受战乱之苦,却依然怀抱希望与勇气,相信爱情,最终她的生命以另一种形式获得圆满。 影片通过她的手稿揭开了一段不为人知的爱尔兰秘史,反映了作者对于爱尔兰独立战争和教会对女性的控制与教化的思考。

Video
ID                                       : 1
Format                                   : AVC
Format/Info                              : Advanced Video Codec
Format profile                           : High@L4.1
Format settings                          : CABAC / 5 Ref Frames
Format settings, CABAC                   : Yes
Format settings, ReFrames                : 5 frames
Codec ID                                 : V_MPEG4/ISO/AVC
Duration                                 : 1 h 48 min
Bit rate                                 : 8 057 kb/s
Width                                    : 1 920 pixels
Height                                   : 796 pixels
Display aspect ratio                     : 2.40:1
Frame rate mode                          : Constant
Frame rate                               : 24.000 FPS
Color space                              : YUV
Chroma subsampling                       : 4:2:0
Bit depth                                : 8 bits
Scan type                                : Progressive
Bits/(Pixel*Frame)                       : 0.220
Stream size                              : 6.13 GiB (82%)
Title                                    : The.Secret.Scripture.2016.1080p.BluRay.x264.DTS-HD.MA.5.1-FGT
Writing library                          : x264 core 148 r2795M aaa9aa8
Encoding settings                        : cabac=1 / ref=5 / deblock=1:0:0 / analyse=0x3:0x133 / me=umh / subme=10 / psy=1 / psy_rd=1.00:0.00 / mixed_ref=1 / me_range=24 / chroma_me=1 / trellis=2 / 8x8dct=1 / cqm=0 / deadzone=21,11 / fast_pskip=1 / chroma_qp_offset=-2 / threads=24 / lookahead_threads=4 / sliced_threads=0 / nr=0 / decimate=1 / interlaced=0 / bluray_compat=0 / constrained_intra=0 / bframes=8 / b_pyramid=2 / b_adapt=2 / b_bias=0 / direct=3 / weightb=1 / open_gop=0 / weightp=2 / keyint=240 / keyint_min=24 / scenecut=40 / intra_refresh=0 / rc_lookahead=60 / rc=crf / mbtree=1 / crf=15.0 / qcomp=0.60 / qpmin=0 / qpmax=69 / qpstep=4 / ip_ratio=1.40 / aq=1:1.00
Language                                 : English
Default                                  : Yes
Forced                                   : No

Audio
ID                                       : 2
Format                                   : DTS
Format/Info                              : Digital Theater Systems
Format profile                           : MA / Core
Codec ID                                 : A_DTS
Duration                                 : 1 h 48 min
Bit rate mode                            : Variable / Constant
Bit rate                                 : 1 804 kb/s / 1 509 kb/s
Channel(s)                               : 6 channels
Channel positions                        : Front: L C R, Side: L R, LFE
Sampling rate                            : 48.0 kHz
Frame rate                               : 93.750 FPS (512 SPF)
Bit depth                                : 16 bits
Compression mode                         : Lossless / Lossy
Stream size                              : 1.37 GiB (18%)
Title                                    : The.Secret.Scripture.2016.1080p.BluRay.x264.DTS-HD.MA.5.1-FGT
Language                                 : English
Default                                  : Yes
Forced                                   : No

Text #1
ID                                       : 3
Format                                   : UTF-8
Codec ID                                 : S_TEXT/UTF8
Codec ID/Info                            : UTF-8 Plain Text
Duration                                 : 1 h 42 min
Bit rate                                 : 33 b/s
Count of elements                        : 976
Stream size                              : 25.5 KiB (0%)
Title                                    : English-SRT
Language                                 : English
Default                                  : Yes
Forced                                   : No

Text #2
ID                                       : 4
Format                                   : UTF-8
Codec ID                                 : S_TEXT/UTF8
Codec ID/Info                            : UTF-8 Plain Text
Duration                                 : 1 h 47 min
Bit rate                                 : 36 b/s
Count of elements                        : 1091
Stream size                              : 29.0 KiB (0%)
Title                                    : English-SDH-SRT
Language                                 : English
Default                                  : No
Forced                                   : No

Menu
00:00:00.000                             : :Chapter 01
00:08:44.417                             : :Chapter 02
00:17:52.833                             : :Chapter 03
00:26:52.833                             : :Chapter 04
00:36:57.833                             : :Chapter 05
00:45:14.833                             : :Chapter 06
00:54:19.208                             : :Chapter 07
01:03:03.833                             : :Chapter 08
01:13:09.417                             : :Chapter 09
01:23:27.625                             : :Chapter 10
01:29:01.833                             : :Chapter 11
01:39:34.833                             : :Chapter 12






种子百度云下载:
https://pan.baidu.com/s/1Rke4XARgI95jDpAC4sT7sQ 密码: x69j

种子本地下载:
The.Secret.Scripture.2016.1080p.BluRay.x264.DTS-HD.MA.5.1-FGT.torrent (75.68 KB, 下载次数: 18)
本人发布的资源如果发现失效,可以私信联系我,能修复的我尽量修复。

0

主题

5134

帖子

622

积分

大将

Rank: 4

UID
531243
积分
622
冰币
6779
威望
0
发表于 2018-4-11 20:33:48 | 显示全部楼层
谢谢版主!幸苦啦!
回复 支持 反对

使用道具 举报

0

主题

16

帖子

-28

积分

平民

UID
553612
积分
-28
冰币
-314
威望
0
发表于 2018-4-11 22:53:48 | 显示全部楼层
老铁,支持啦、!!!
回复 支持 反对

使用道具 举报

0

主题

16

帖子

-28

积分

平民

UID
553612
积分
-28
冰币
-314
威望
0
发表于 2018-4-11 23:00:30 | 显示全部楼层
谢谢版主,辛苦了
回复 支持 反对

使用道具 举报

1

主题

77

帖子

-23

积分

民兵

UID
321522
积分
-23
冰币
-268
威望
0
发表于 2018-4-12 08:50:05 | 显示全部楼层
感谢楼主分享
回复 支持 反对

使用道具 举报

1

主题

5057

帖子

726

积分

大将

Rank: 4

UID
365067
积分
726
冰币
7896
威望
0
发表于 2018-4-13 07:39:03 | 显示全部楼层
谢谢分享精彩影片
回复 支持 反对

使用道具 举报

0

主题

485

帖子

65

积分

小将

Rank: 2

UID
546801
积分
65
冰币
669
威望
0
发表于 2018-4-14 16:02:24 | 显示全部楼层
谢谢楼主分享
回复 支持 反对

使用道具 举报

0

主题

81

帖子

-9

积分

民兵

UID
535726
积分
-9
冰币
-108
威望
0
发表于 2018-4-18 17:17:16 | 显示全部楼层
我觉得这部电影不错
回复 支持 反对

使用道具 举报

本版积分规则

手机版|小黑屋|冰冰网 ( 粤ICP备10024810号-1 )

GMT+8, 2018-7-16 08:53

Powered by www.discuz.net Discuz! X3.4

© 2001-2012 Comsenz Inc sitemap a67 s80


本站影视音乐资源来自互联网免费共享,仅供交流学习之用,版权归作者本人所有,如果侵犯了您的权益,请通知我们,邮箱地址mail@aapig.com
快速回复 返回顶部 返回列表