冰冰网

 找回密码
 开放注册,禁止乱回复

只需一步,快速开始

https://www.aapig.com/mp4-683334-p1-1.html
搜索
查看: 213|回复: 22

[欧美] 复制贝多芬/欢乐颂 Copying.Beethoven.2006.1080p.BluRay.x264-DIMENSION 7.9GB

[复制链接]
 成长值: 740

7994

主题

8166

帖子

49万

积分

参谋

非凡-feifang

Rank: 8Rank: 8

UID
2
积分
495979
冰币
23342
威望
242

管理员

发表于 2018-4-10 22:04:52 | 显示全部楼层 |阅读模式 |        |
1.jpg
◎中文译名 复制贝多芬/欢乐颂/重现贝多芬
◎片  名 Copying Beethoven
◎日  期 2006
◎国家地区 美国/德国/匈牙利
◎影片类型 传记/剧情/音乐
◎对  白 英语
◎上映日期 2006-10-19
◎IMDb评分  6.8/10 from 10,887 users
◎IMDB链接  www.aapig.com.cn www.imdb.com/title/tt0424908/
◎豆瓣评分 7.3/10 from 5,574 users
◎豆瓣链接 http://movie.douban.com/subject/1850660/
◎影片时长 104 分钟
◎影片导演 阿格涅丝卡·霍兰 Agnieszka Holland
◎主要演员 艾德·哈里斯 Ed Harris
      黛安·克鲁格 Diane Kruger
      马修·古迪 Matthew Goode
      乔·安德森 Joe Anderson
      Ralph Riach

◎资源介绍

  1824年,维也纳。年仅23岁的安娜·霍兹(戴安·克鲁格 Diane Kruger 饰)凭借自己对于音乐的出色领悟力成为贝多芬(艾德·哈里斯 Ed Harris 饰)的乐稿抄写员,此时已经失聪的贝多芬正醉心于创作自己的“告别作”。安娜本想借着为贝多芬工作的机会向他学习,从而成为一名出色的作曲家,可是很快她发现贝多芬是一个固执、粗鲁、一味沉浸在自我世界中的疯子。贝多芬《第九交响曲》的首演由于安娜在危急时给予帮助而取得成功,两人的关系逐渐好转。安娜拿出自己所写的曲子让贝多芬评价时,却惹来贝多芬尖酸刻薄的嘲讽,安娜一气之下离开了贝多芬。在贝多芬的请求下,安娜又重新回到贝多芬身边并且尝试接受他那些过激言语所传达的意见,安娜似乎渐渐理解了这位天才级的大师……
  本片2007年在素有“西班牙奥斯卡”之称的哥雅奖(Goya Awards)上获最佳欧洲电影提名。


Video
ID                                       : 1
Format                                   : AVC
Format/Info                              : Advanced Video Codec
Format profile                           : High@L4.1
Format settings, CABAC                   : Yes
Format settings, ReFrames                : 5 frames
Codec ID                                 : V_MPEG4/ISO/AVC
Duration                                 : 1h 44mn
Bit rate                                 : 9 423 Kbps
Width                                    : 1 920 pixels
Height                                   : 816 pixels
Display aspect ratio                     : 2.35:1
Frame rate mode                          : Constant
Frame rate                               : 23.976 (24000/1001) fps
Color space                              : YUV
Chroma subsampling                       : 4:2:0
Bit depth                                : 8 bits
Scan type                                : Progressive
Bits/(Pixel*Frame)                       : 0.251
Stream size                              : 6.69 GiB (84%)
Writing library                          : x264 core 79 r1342 e8501ef
Encoding settings                        : cabac=1 / ref=5 / deblock=1:-1:-1 / analyse=0x3:0x113 / me=umh / subme=8 / psy=1 / psy_rd=1.0:0.0 / mixed_ref=1 / me_range=16 / chroma_me=1 / trellis=1 / 8x8dct=1 / cqm=0 / deadzone=21,11 / chroma_qp_offset=-2 / threads=6 / nr=0 / decimate=1 / mbaff=0 / constrained_intra=0 / bframes=3 / b_pyramid=0 / b_adapt=1 / b_bias=0 / direct=3 / wpredb=1 / wpredp=2 / keyint=250 / keyint_min=25 / scenecut=40 / rc_lookahead=40 / rc=2pass / mbtree=1 / bitrate=9423 / ratetol=1.0 / qcomp=0.60 / qpmin=10 / qpmax=51 / qpstep=4 / cplxblur=20.0 / qblur=0.5 / ip_ratio=1.40 / aq=1:1.10
Language                                 : English
Default                                  : No
Forced                                   : No

Audio
ID                                       : 2
Format                                   : DTS
Format/Info                              : Digital Theater Systems
Mode                                     : 16
Format settings, Endianness              : Big
Codec ID                                 : A_DTS
Duration                                 : 1h 44mn
Bit rate mode                            : Constant
Bit rate                                 : 1 509 Kbps
Channel(s)                               : 6 channels
Channel positions                        : Front: L C R, Side: L R, LFE
Sampling rate                            : 48.0 KHz
Frame rate                               : 93.750 fps (512 spf)
Bit depth                                : 24 bits
Compression mode                         : Lossy
Stream size                              : 1.10 GiB (14%)
Language                                 : English
Default                                  : No
Forced                                   : No

Text
ID                                       : 3
Format                                   : UTF-8
Codec ID                                 : S_TEXT/UTF8
Codec ID/Info                            : UTF-8 Plain Text
Language                                 : English
Default                                  : No
Forced                                   : No






种子百度云下载:
https://pan.baidu.com/s/10IXA0_DBNicaAxcWdlCxyQ 密码: pkg3

种子本地下载:
Copying.Beethoven.2006.1080p.BluRay.x264-DIMENSIO.torrent (80.06 KB, 下载次数: 15)
本人发布的资源如果发现失效,可以私信联系我,能修复的我尽量修复。

1

主题

1510

帖子

420

积分

部将

Rank: 3Rank: 3

UID
310987
积分
420
冰币
4312
威望
0
发表于 2018-4-11 07:39:01 | 显示全部楼层
伟人身边的平凡女人
回复 支持 反对

使用道具 举报

0

主题

5202

帖子

634

积分

大将

Rank: 4

UID
531243
积分
634
冰币
6911
威望
0
发表于 2018-4-11 20:32:07 | 显示全部楼层
谢谢版主!幸苦啦!
回复 支持 反对

使用道具 举报

1

主题

77

帖子

-23

积分

民兵

UID
321522
积分
-23
冰币
-268
威望
0
发表于 2018-4-12 08:49:05 | 显示全部楼层
感谢楼主分享
回复 支持 反对

使用道具 举报

1

主题

5070

帖子

735

积分

大将

Rank: 4

UID
365067
积分
735
冰币
8000
威望
0
发表于 2018-4-13 07:38:23 | 显示全部楼层
谢谢分享精彩影片
回复 支持 反对

使用道具 举报

0

主题

445

帖子

11

积分

大兵

Rank: 1

UID
551309
积分
11
冰币
108
威望
0
发表于 2018-4-13 17:15:16 | 显示全部楼层
Monamour.2006.BluRay.1080p.AC3.x264-CHD
回复 支持 反对

使用道具 举报

0

主题

445

帖子

11

积分

大兵

Rank: 1

UID
551309
积分
11
冰币
108
威望
0
发表于 2018-4-13 18:29:09 | 显示全部楼层
巴西传奇车手埃尔顿·赛纳传奇的西传奇车手埃尔顿·赛纳传奇
回复 支持 反对

使用道具 举报

0

主题

445

帖子

11

积分

大兵

Rank: 1

UID
551309
积分
11
冰币
108
威望
0
发表于 2018-4-13 18:31:28 | 显示全部楼层
丝袜马华)】作品合集丝袜马华)】作品合集
回复 支持 反对

使用道具 举报

本版积分规则

手机版|小黑屋|冰冰网 ( 粤ICP备10024810号-1 )

GMT+8, 2018-7-22 16:25

Powered by www.discuz.net Discuz! X3.4

© 2001-2012 Comsenz Inc sitemap a67 s80


本站影视音乐资源来自互联网免费共享,仅供交流学习之用,版权归作者本人所有,如果侵犯了您的权益,请通知我们,邮箱地址mail@aapig.com
快速回复 返回顶部 返回列表