冰冰网

 找回密码
 开放注册,禁止乱回复

只需一步,快速开始

https://www.aapig.com/mp4-683334-p1-1.html
搜索
查看: 555|回复: 12

[纪录片] 中国骗局 强国救世梦 The.China.Hustle.2017.1080p.WEB.x264-SKGTV 4.63GB

[复制链接]
 成长值: 750

7998

主题

8170

帖子

49万

积分

参谋

非凡-feifang

Rank: 8Rank: 8

UID
2
积分
495981
冰币
23350
威望
242

管理员

发表于 2018-4-11 21:18:56 | 显示全部楼层 |阅读模式 |        |
1.jpg
导演: Jed Rothstein
类型: 纪录片
制片国家/地区: 美国
语言: 英语
上映日期: 2017-09(加拿大)
片长: 82分钟
又名: 强国救世梦(港)
IMDb链接: tt7215388
豆瓣评分:6.2

剧情简介:
  水能載舟,亦能覆舟。2008金融海嘯之後,全美視引入中資為救市良方。透過反收購美國公司,中資企業如洪流湧進山姆叔叔的金融市場,有人額手稱慶,有人看出隱憂。轉眼十年快過,積羅夫斯坦遍訪華爾街,他的鏡頭下有大鱷,也有機會主義者,更有註定後悔出鏡的業界「消息靈通人士」,進退之間幾乎拍成了一齣恐怖片—到處是街客想像不到的秘密交易、巧取豪奪。如果這「故事」有教訓,大抵是:知難而退簡直是天方夜譚, 失手的下次只會來得更狠更卑鄙。


Video
ID                                       : 1
Format                                   : AVC
Format/Info                              : Advanced Video Codec
Format profile                           : Main@L4
Format settings                          : CABAC / 3 Ref Frames
Format settings, CABAC                   : Yes
Format settings, ReFrames                : 3 frames
Codec ID                                 : V_MPEG4/ISO/AVC
Duration                                 : 1 h 24 min
Bit rate mode                            : Variable
Bit rate                                 : 7 500 kb/s
Maximum bit rate                         : 11.2 Mb/s
Width                                    : 1 920 pixels
Height                                   : 1 080 pixels
Display aspect ratio                     : 16:9
Frame rate mode                          : Constant
Frame rate                               : 23.976 (24000/1001) FPS
Color space                              : YUV
Chroma subsampling                       : 4:2:0
Bit depth                                : 8 bits
Scan type                                : Progressive
Bits/(Pixel*Frame)                       : 0.151
Stream size                              : 4.40 GiB (95%)
Writing library                          : x264 core 148 r2715 7e75228
Encoding settings                        : cabac=1 / ref=3 / deblock=1:0:0 / analyse=0x1:0x111 / me=umh / subme=10 / psy=1 / psy_rd=1.00:0.00 / mixed_ref=1 / me_range=24 / chroma_me=1 / trellis=2 / 8x8dct=0 / cqm=0 / deadzone=21,11 / fast_pskip=1 / chroma_qp_offset=-2 / threads=8 / lookahead_threads=1 / sliced_threads=0 / nr=0 / decimate=1 / interlaced=0 / bluray_compat=0 / stitchable=1 / constrained_intra=0 / bframes=2 / b_pyramid=0 / b_adapt=2 / b_bias=0 / direct=3 / weightb=1 / open_gop=0 / weightp=2 / keyint=48 / keyint_min=25 / scenecut=0 / intra_refresh=0 / rc_lookahead=48 / rc=2pass / mbtree=1 / bitrate=7500 / ratetol=1.0 / qcomp=0.50 / qpmin=6 / qpmax=51 / qpstep=4 / cplxblur=20.0 / qblur=0.5 / vbv_maxrate=11250 / vbv_bufsize=15000 / nal_hrd=vbr / filler=0 / ip_ratio=1.40 / aq=1:1.00
Default                                  : Yes
Forced                                   : No

Audio
ID                                       : 2
Format                                   : AC-3
Format/Info                              : Audio Coding 3
Codec ID                                 : A_AC3
Duration                                 : 1 h 24 min
Bit rate mode                            : Constant
Bit rate                                 : 384 kb/s
Channel(s)                               : 6 channels
Channel positions                        : Front: L C R, Side: L R, LFE
Sampling rate                            : 48.0 kHz
Frame rate                               : 31.250 FPS (1536 SPF)
Bit depth                                : 16 bits
Compression mode                         : Lossy
Stream size                              : 233 MiB (5%)
Title                                    : English
Language                                 : English
Service kind                             : Complete Main
Default                                  : No
Forced                                   : No

Text #1
ID                                       : 3
Format                                   : UTF-8
Codec ID                                 : S_TEXT/UTF8
Codec ID/Info                            : UTF-8 Plain Text
Duration                                 : 1 h 12 min
Bit rate                                 : 4 b/s
Count of elements                        : 54
Stream size                              : 2.27 KiB (0%)
Title                                    : English [Forced]
Language                                 : English
Default                                  : Yes
Forced                                   : No

Text #2
ID                                       : 4
Format                                   : UTF-8
Codec ID                                 : S_TEXT/UTF8
Codec ID/Info                            : UTF-8 Plain Text
Duration                                 : 1 h 21 min
Bit rate                                 : 105 b/s
Count of elements                        : 2839
Stream size                              : 62.8 KiB (0%)
Title                                    : English [SDH]
Language                                 : English
Default                                  : No
Forced                                   : No

Text #3
ID                                       : 5
Format                                   : UTF-8
Codec ID                                 : S_TEXT/UTF8
Codec ID/Info                            : UTF-8 Plain Text
Duration                                 : 1 h 24 min
Bit rate                                 : 88 b/s
Count of elements                        : 1341
Stream size                              : 54.4 KiB (0%)
Title                                    : Italian [Full]
Language                                 : Italian
Default                                  : No
Forced                                   : No

Text #4
ID                                       : 6
Format                                   : UTF-8
Codec ID                                 : S_TEXT/UTF8
Codec ID/Info                            : UTF-8 Plain Text
Duration                                 : 1 h 24 min
Bit rate                                 : 85 b/s
Count of elements                        : 1346
Stream size                              : 52.7 KiB (0%)
Title                                    : Castilian [Full]
Language                                 : Spanish
Default                                  : No
Forced                                   : No

Text #5
ID                                       : 7
Format                                   : UTF-8
Codec ID                                 : S_TEXT/UTF8
Codec ID/Info                            : UTF-8 Plain Text
Duration                                 : 1 h 24 min
Bit rate                                 : 85 b/s
Count of elements                        : 1348
Stream size                              : 52.6 KiB (0%)
Title                                    : French [Full]
Language                                 : French
Default                                  : No
Forced                                   : No

Text #6
ID                                       : 8
Format                                   : UTF-8
Codec ID                                 : S_TEXT/UTF8
Codec ID/Info                            : UTF-8 Plain Text
Duration                                 : 1 h 24 min
Bit rate                                 : 86 b/s
Count of elements                        : 1344
Stream size                              : 53.5 KiB (0%)
Title                                    : German [Full]
Language                                 : German
Default                                  : No
Forced                                   : No

Text #7
ID                                       : 9
Format                                   : UTF-8
Codec ID                                 : S_TEXT/UTF8
Codec ID/Info                            : UTF-8 Plain Text
Duration                                 : 1 h 24 min
Bit rate                                 : 91 b/s
Count of elements                        : 1341
Stream size                              : 56.3 KiB (0%)
Title                                    : Portuguese [Full]
Language                                 : Portuguese
Default                                  : No
Forced                                   : No

Text #8
ID                                       : 10
Format                                   : UTF-8
Codec ID                                 : S_TEXT/UTF8
Codec ID/Info                            : UTF-8 Plain Text
Duration                                 : 1 h 24 min
Bit rate                                 : 79 b/s
Count of elements                        : 1349
Stream size                              : 48.9 KiB (0%)
Title                                    : Polish [Full]
Language                                 : Polish
Default                                  : No
Forced                                   : No

Text #9
ID                                       : 11
Format                                   : UTF-8
Codec ID                                 : S_TEXT/UTF8
Codec ID/Info                            : UTF-8 Plain Text
Duration                                 : 1 h 24 min
Bit rate                                 : 89 b/s
Count of elements                        : 1337
Stream size                              : 55.2 KiB (0%)
Title                                    : Swedish [Full]
Language                                 : Swedish
Default                                  : No
Forced                                   : No

Text #10
ID                                       : 12
Format                                   : UTF-8
Codec ID                                 : S_TEXT/UTF8
Codec ID/Info                            : UTF-8 Plain Text
Duration                                 : 1 h 24 min
Bit rate                                 : 89 b/s
Count of elements                        : 1331
Stream size                              : 55.4 KiB (0%)
Title                                    : Danish [Full]
Language                                 : Danish
Default                                  : No
Forced                                   : No

Text #11
ID                                       : 13
Format                                   : UTF-8
Codec ID                                 : S_TEXT/UTF8
Codec ID/Info                            : UTF-8 Plain Text
Duration                                 : 1 h 24 min
Bit rate                                 : 89 b/s
Count of elements                        : 1341
Stream size                              : 55.2 KiB (0%)
Title                                    : Finnish [Full]
Language                                 : Finnish
Default                                  : No
Forced                                   : No

Text #12
ID                                       : 14
Format                                   : UTF-8
Codec ID                                 : S_TEXT/UTF8
Codec ID/Info                            : UTF-8 Plain Text
Duration                                 : 1 h 24 min
Bit rate                                 : 91 b/s
Count of elements                        : 1300
Stream size                              : 56.6 KiB (0%)
Title                                    : Norwegian [Full]
Language                                 : Norwegian
Default                                  : No
Forced                                   : No





种子百度云下载:
https://pan.baidu.com/s/1_t4M9KIQNtID4UoBDlKEOg 密码: f8cf

种子本地下载:
The.China.Hustle.2017.1080p.WEB.x264-SKGTV.torrent (93.16 KB, 下载次数: 254)
本人发布的资源如果发现失效,可以私信联系我,能修复的我尽量修复。

4

主题

1154

帖子

1070

积分

大将

Rank: 4

UID
477285
积分
1070
冰币
11599
威望
0
发表于 2018-4-12 08:56:54 | 显示全部楼层
水能載舟,亦能覆舟
回复 支持 反对

使用道具 举报

0

主题

259

帖子

337

积分

部将

Rank: 3Rank: 3

UID
550357
积分
337
冰币
3692
威望
0
发表于 2018-4-12 08:58:06 | 显示全部楼层
哇哦,这片子应该看看
回复 支持 反对

使用道具 举报

0

主题

258

帖子

87

积分

小将

Rank: 2

UID
553513
积分
87
冰币
896
威望
0
发表于 2018-4-12 12:55:42 | 显示全部楼层
纪录片,谢谢分享
回复 支持 反对

使用道具 举报

0

主题

137

帖子

84

积分

小将

Rank: 2

UID
545513
积分
84
冰币
888
威望
0
发表于 2018-4-12 16:55:52 | 显示全部楼层
看看说什么的?谢谢分享!
回复 支持 反对

使用道具 举报

1

主题

16

帖子

-18

积分

民兵

UID
321108
积分
-18
冰币
-224
威望
0
发表于 2018-4-12 16:59:27 | 显示全部楼层
纪录片,谢谢分享
回复 支持 反对

使用道具 举报

1

主题

927

帖子

531

积分

大将

Rank: 4

UID
446142
积分
531
冰币
5704
威望
0
发表于 2018-4-13 02:13:19 | 显示全部楼层
老美的YY,谢谢楼主分享
回复 支持 反对

使用道具 举报

1

主题

5071

帖子

736

积分

大将

Rank: 4

UID
365067
积分
736
冰币
8011
威望
0
发表于 2018-4-13 07:37:13 | 显示全部楼层
谢谢分享精彩影片
回复 支持 反对

使用道具 举报

0

主题

30

帖子

-25

积分

民兵

UID
539103
积分
-25
冰币
-289
威望
0
发表于 2018-4-14 00:07:43 | 显示全部楼层
这片子应该看看
回复 支持 反对

使用道具 举报

本版积分规则

手机版|小黑屋|冰冰网 ( 粤ICP备10024810号-1 )

GMT+8, 2018-7-23 09:38

Powered by www.discuz.net Discuz! X3.4

© 2001-2012 Comsenz Inc sitemap a67 s80


本站影视音乐资源来自互联网免费共享,仅供交流学习之用,版权归作者本人所有,如果侵犯了您的权益,请通知我们,邮箱地址mail@aapig.com
快速回复 返回顶部 返回列表