冰冰网

 找回密码
 开放注册,禁止乱回复

只需一步,快速开始

https://www.aapig.com/mp4-683334-p1-1.html
搜索
查看: 245|回复: 5

[韩日] 埃内斯托[内封中字]Ernesto.2017.1080p.BluRay.x264.DTS-WiKi 10.9GB

[复制链接]
 成长值: 720

7986

主题

8158

帖子

49万

积分

参谋

非凡-feifang

Rank: 8Rank: 8

UID
2
积分
495974
冰币
23324
威望
242

管理员

发表于 2018-4-11 21:38:23 | 显示全部楼层 |阅读模式 |        |
1.jpg
◎中文译名 埃内斯托
◎片  名 エルネスト
◎日  期 2017
◎产  地 日本/古巴
◎影片类型 剧情/传记/历史
◎对  白 日语
◎上映日期 2017-10-06(日本)
◎IMDb评分  6.0/10 from 11 users
◎IMDB链接  www.aapig.com.cn www.imdb.com/title/tt5937210/
◎豆瓣评分 /10 from 0 users
◎豆瓣链接 https://movie.douban.com/subject/26849117/
◎影片时长 124分钟
◎影片导演 阪本顺治 Junji Sakamoto
◎主要演员 小田切让 Jô Odagiri
      永山绚斗 Kento Nagayama
      Alexis Díaz de Villegas
      Juan M. Valero

◎资源介绍

  故事以参加古巴革命英雄切·格瓦拉的游击部队,并被切·格瓦拉命名为“埃内斯托”的日本血统玻利维亚人埃内斯托·弗莱迪的一生故事。作为日系玻利维亚人而出生于1941年10月的埃内斯托·前村·弗莱迪出生于富裕家庭,少年时期的他看到贫富差距巨大的社会中不少贫穷人人生时,经常向贫穷朋友送上关心。为了人类而决定从医的他在古巴医学院留学时认识了切·格瓦拉,并因此改变了他的人生。随后,听闻祖国玻利维亚军事政变,埃内斯托·弗莱迪参加了切·格瓦拉的游击队,决心为国民而奉献生命。

Video
ID                                       : 1
Format                                   : AVC
Format/Info                              : Advanced Video Codec
Format profile                           : High@L4.1
Format settings                          : CABAC / 4 Ref Frames
Format settings, CABAC                   : Yes
Format settings, ReFrames                : 4 frames
Codec ID                                 : V_MPEG4/ISO/AVC
Duration                                 : 2 h 4 min
Bit rate                                 : 11.1 Mb/s
Width                                    : 1 920 pixels
Height                                   : 1 038 pixels
Display aspect ratio                     : 1.85:1
Frame rate mode                          : Constant
Frame rate                               : 23.976 (24000/1001) FPS
Color space                              : YUV
Chroma subsampling                       : 4:2:0
Bit depth                                : 8 bits
Scan type                                : Progressive
Bits/(Pixel*Frame)                       : 0.233
Stream size                              : 9.67 GiB (88%)
Writing library                          : x264 core 129 r2245+704+36 8e61944 tMod+MixAQ [8-bit@4:2:0 X86_64]
Encoding settings                        : cabac=1 / ref=4 / deblock=1:-3:-3 / analyse=0x3:0x133 / me=umh / subme=11 / psy=1 / fade_compensate=0.00 / psy_rd=1.05:0.10 / mixed_ref=1 / me_range=64 / chroma_me=1 / trellis=2 / 8x8dct=1 / cqm=0 / deadzone=21,11 / fast_pskip=0 / chroma_qp_offset=-3 / threads=18 / lookahead_threads=3 / sliced_threads=0 / nr=0 / decimate=0 / interlaced=0 / bluray_compat=0 / constrained_intra=0 / fgo=0 / bframes=10 / b_pyramid=2 / b_adapt=2 / b_bias=0 / direct=3 / weightb=1 / open_gop=0 / weightp=2 / keyint=250 / keyint_min=23 / scenecut=40 / intra_refresh=0 / rc=2pass / mbtree=0 / bitrate=11140 / ratetol=1.0 / qcomp=0.70 / qpmin=0 / qpmax=69 / qpstep=4 / cplxblur=20.0 / qblur=0.5 / ip_ratio=1.40 / pb_ratio=1.30 / aq=1 / aq-strength=0.85 / aq-sensitivity=10.00 / aq-ifactor=1.00 / aq-pfactor=1.00 / aq-bfactor=1.00 / aq2=0
Language                                 : Japanese
Default                                  : Yes
Forced                                   : No

Audio
ID                                       : 2
Format                                   : DTS
Format/Info                              : Digital Theater Systems
Codec ID                                 : A_DTS
Duration                                 : 2 h 4 min
Bit rate mode                            : Constant
Bit rate                                 : 1 509 kb/s
Channel(s)                               : 6 channels
Channel positions                        : Front: L C R, Side: L R, LFE
Sampling rate                            : 48.0 kHz
Frame rate                               : 93.750 FPS (512 SPF)
Bit depth                                : 24 bits
Compression mode                         : Lossy
Stream size                              : 1.31 GiB (12%)
Language                                 : Japanese
Default                                  : Yes
Forced                                   : No

Text
ID                                       : 3
Format                                   : ASS
Codec ID                                 : S_TEXT/ASS
Codec ID/Info                            : Advanced Sub Station Alpha
Duration                                 : 2 h 0 min
Bit rate                                 : 72 b/s
Count of elements                        : 1283
Compression mode                         : Lossless
Stream size                              : 64.5 KiB (0%)
Language                                 : Chinese
Default                                  : Yes
Forced                                   : No

Menu
00:00:00.000                             : en:00:00:00.000
00:20:38.237                             : en:00:20:38.237
00:31:17.792                             : en:00:31:17.792
00:53:35.670                             : en:00:53:35.670
01:13:30.197                             : en:01:13:30.197
01:28:42.150                             : en:01:28:42.150
01:42:25.472                             : en:01:42:25.472
01:54:24.482                             : en:01:54:24.482
02:04:24.457                             : en:02:04:24.457






种子百度云下载:
https://pan.baidu.com/s/1F2-mPTfKELJSTOMBbYcMGg 密码: yc5e

种子本地下载:
Ernesto.2017.1080p.BluRay.x264.DTS-WiKi.torrent (55.44 KB, 下载次数: 11)
本人发布的资源如果发现失效,可以私信联系我,能修复的我尽量修复。

1

主题

77

帖子

-23

积分

民兵

UID
321522
积分
-23
冰币
-268
威望
0
发表于 2018-4-12 08:46:28 | 显示全部楼层
感谢楼主分享
回复 支持 反对

使用道具 举报

1

主题

5069

帖子

734

积分

大将

Rank: 4

UID
365067
积分
734
冰币
7984
威望
0
发表于 2018-4-13 07:36:39 | 显示全部楼层
谢谢分享精彩影片
回复 支持 反对

使用道具 举报

0

主题

494

帖子

68

积分

小将

Rank: 2

UID
546801
积分
68
冰币
697
威望
0
发表于 2018-4-18 14:23:58 | 显示全部楼层
感谢楼主分享
回复 支持 反对

使用道具 举报

本版积分规则

手机版|小黑屋|冰冰网 ( 粤ICP备10024810号-1 )

GMT+8, 2018-7-20 20:40

Powered by www.discuz.net Discuz! X3.4

© 2001-2012 Comsenz Inc sitemap a67 s80


本站影视音乐资源来自互联网免费共享,仅供交流学习之用,版权归作者本人所有,如果侵犯了您的权益,请通知我们,邮箱地址mail@aapig.com
快速回复 返回顶部 返回列表