冰冰网

 找回密码
 开放注册,禁止乱回复
搜索
查看: 64|回复: 2

[华语] 妖猫传 2017.720p.BluRay.x264.DD5.1-CHD 5.9GB

[复制链接]
 成长值: 180

7591

主题

7762

帖子

49万

积分

参谋

非凡-feifang

Rank: 8Rank: 8

UID
2
积分
495754
冰币
22375
威望
239

管理员

发表于 2018-4-29 21:22:52 | 显示全部楼层 |阅读模式 |        |

◎中文译名 沙门空海/沙门空海之大唐鬼宴/大唐鬼宴/空海/空海 KU-KAI 美しき王妃の謎/沙門空海唐の国にて鬼と宴す
◎片  名 妖猫传
◎日  期 2017
◎产  地 中国大陆/日本
◎影片类型 剧情/悬疑/奇幻/古装
◎对  白 汉语普通话/日语
◎上映日期 2017-12-22(中国大陆)/2018-02-24(日本)
◎IMDb评分  6.3/10 from 828 users
◎IMDB链接  www.aapig.org www.imdb.com/title/tt6157626/
◎豆瓣评分 7.0/10 from 362,809 users
◎豆瓣链接 https://movie.douban.com/subject/5350027/
◎影片时长 129分钟(中国大陆)/132分钟(日本)
◎影片导演 陈凯歌 Kaige Chen
◎主要演员 黄轩 Xuan Huang
      染谷将太 Shôta Sometani
      张雨绮 Yuqi  Zhang
      秦昊 Hao Qin
      张榕容 Sandrine Pinna
      刘昊然 Haoran Liu
      欧豪 Hao Ou
      张鲁一 Luyi Zhang
      阿部宽 Hiroshi Abe
      田雨 Yu Tian
      刘佩琦 Peiqi Liu
      辛柏青 Baiqing Xin
      成泰燊 Taishen Cheng
      李淳 Mason Lee
      秦怡 Yi Qin
      松坂庆子 Keiko Matsuzaka
      张天爱 Tian'ai Zhang
      周中和 Zhonghe Zhou
      火野正平 Shôhei Hino
      夏楠 Nan Xia
      陈旭 Xu Chen
      王迪 Di Wang
      宋运成 Yuncheng Song
      刘国华 Guohua Liu

◎资源介绍

  故事发生在盛唐时期的长安城,白乐天(黄轩 饰)本是朝廷要官,却为了收集写诗的素材而甘愿被贬为起居郎。长安城内连连发生离奇的死亡事件,就连当今圣上也难逃厄运离奇身亡,这一切都和一只神出鬼没的妖猫有关。日本僧人空海(染谷将太 饰)本为了替皇帝解咒远渡重洋而来,却和白乐天意气相投,两人决心携手调查案件真相。
  一首如怨如诉的《清平调》表明,妖猫作祟和三十年前倾国倾城的杨贵妃(张榕容 饰)之死有着千丝万缕的关联,追寻着曾经迷恋杨贵妃的阿部仲麻吕(阿部宽 饰)所留下的日记,白乐天和空海一同见证了大唐曾经的荣光,亦揭开了当年隐瞒至今的阴谋。

◎获奖情况

  第12届亚洲电影大奖  (2018)
  最佳导演(提名) 陈凯歌
  最佳女配角 张雨绮
  最佳摄影(提名) 曹郁
  最佳美术指导 陆苇 / 屠楠
  最佳造型设计 陈同勋
  最佳视觉效果 石井教雄

  第4届豆瓣电影年度榜单  (2017)
  12月最受关注电影(提名)

  第3届豆瓣电影年度榜单  (2016)
  最值得期待的华语电影(提名)

Video
ID                                       : 1
Format                                   : AVC
Format/Info                              : Advanced Video Codec
Format profile                           : High@L4.1
Format settings                          : CABAC / 9 Ref Frames
Format settings, CABAC                   : Yes
Format settings, ReFrames                : 9 frames
Codec ID                                 : V_MPEG4/ISO/AVC
Duration                                 : 2 h 9 min
Bit rate                                 : 6 000 kb/s
Width                                    : 1 280 pixels
Height                                   : 536 pixels
Display aspect ratio                     : 2.40:1
Frame rate mode                          : Constant
Frame rate                               : 24.000 FPS
Color space                              : YUV
Chroma subsampling                       : 4:2:0
Bit depth                                : 8 bits
Scan type                                : Progressive
Bits/(Pixel*Frame)                       : 0.364
Stream size                              : 5.41 GiB (90%)
Writing library                          : x264 core 155 r2867+74 66b5600 t_mod_Custom_2 [8-bit@all X86_64]
Encoding settings                        : cabac=1 / ref=9 / deblock=1:-3:-3 / analyse=0x3:0x133 / me=umh / subme=11 / psy=1 / fade_compensate=0.00 / psy_rd=0.90:0.10 / mixed_ref=1 / me_range=32 / chroma_me=1 / trellis=2 / 8x8dct=1 / cqm=0 / deadzone=21,11 / fast_pskip=0 / chroma_qp_offset=-4 / threads=12 / lookahead_threads=2 / sliced_threads=0 / nr=0 / decimate=1 / interlaced=0 / bluray_compat=0 / constrained_intra=0 / fgo=0 / bframes=9 / b_pyramid=2 / b_adapt=2 / b_bias=0 / direct=3 / weightb=1 / open_gop=0 / weightp=2 / keyint=250 / keyint_min=24 / scenecut=40 / intra_refresh=0 / rc_lookahead=30 / rc=2pass / mbtree=0 / bitrate=6000 / ratetol=2.0 / qcomp=0.70 / qpmin=0:0:0 / qpmax=69:69:69 / qpstep=4 / cplxblur=20.0 / qblur=0.5 / vbv_maxrate=24000 / vbv_bufsize=24000 / nal_hrd=none / filler=0 / ip_ratio=1.40 / pb_ratio=1.30 / aq=3:1.00 / aq-sensitivity=10.00 / aq-factor=1.00:1.00:1.00 / aq2=0 / aq3=2:[0.50:0.50]:[0.50:0.50]:[0.50:0.50]:[0.50:0.50] / aq3-sensitivity=10.00 / aq3-factor=[1.00:1.00]:[1.00:1.00]:[1.00:1.00] / aq3-boundary=192:64:24
Language                                 : Chinese
Default                                  : Yes
Forced                                   : No

Audio
ID                                       : 2
Format                                   : AC-3
Format/Info                              : Audio Coding 3
Codec ID                                 : A_AC3
Duration                                 : 2 h 9 min
Bit rate mode                            : Constant
Bit rate                                 : 640 kb/s
Channel(s)                               : 6 channels
Channel positions                        : Front: L C R, Side: L R, LFE
Sampling rate                            : 48.0 kHz
Frame rate                               : 31.250 FPS (1536 SPF)
Bit depth                                : 16 bits
Compression mode                         : Lossy
Stream size                              : 591 MiB (10%)
Language                                 : Chinese
Service kind                             : Complete Main
Default                                  : Yes
Forced                                   : No

Text
ID                                       : 3
Format                                   : UTF-8
Codec ID                                 : S_TEXT/UTF8
Codec ID/Info                            : UTF-8 Plain Text
Duration                                 : 2 h 3 min
Bit rate                                 : 31 b/s
Count of elements                        : 1262
Stream size                              : 28.5 KiB (0%)
Title                                    : English
Language                                 : English
Default                                  : Yes
Forced                                   : Yes

Menu
00:00:00.000                             : en:00:00:00.000
00:09:09.750                             : en:00:09:09.750
00:19:17.125                             : en:00:19:17.125
00:27:04.417                             : en:00:27:04.417
00:31:07.708                             : en:00:31:07.708
00:36:53.167                             : en:00:36:53.167
00:42:00.292                             : en:00:42:00.292
00:49:10.208                             : en:00:49:10.208
00:54:01.917                             : en:00:54:01.917
00:59:11.875                             : en:00:59:11.875
01:03:47.292                             : en:01:03:47.292
01:08:10.500                             : en:01:08:10.500
01:12:29.792                             : en:01:12:29.792
01:19:49.667                             : en:01:19:49.667
01:25:21.958                             : en:01:25:21.958
01:31:30.833                             : en:01:31:30.833
01:39:10.667                             : en:01:39:10.667
01:45:36.083                             : en:01:45:36.083
01:53:28.625                             : en:01:53:28.625
02:05:46.000                             : en:02:05:46.000





种子百度云下载:
https://pan.baidu.com/s/1qf-yRonrmzAFqoJN5uEGAw 密码: d8dm

种子本地下载:
Legend.of.the.Demon.Cat.2017.CHINESE.720p.BluRay.x264.DD5.1-CHD.torrent (60.45 KB, 下载次数: 44)
本人发布的资源如果发现失效,可以私信联系我,能修复的我尽量修复。

1

主题

60

帖子

1

积分

小兵

Rank: 1

UID
418390
积分
1
冰币
-15
威望
0
发表于 2018-4-29 23:29:39 | 显示全部楼层
#在妖猫作祟和三十年前倾国倾城的杨贵妃(张榕容 饰)之死有着千丝万缕的关联这里快速回复#
回复 支持 反对

使用道具 举报

0

主题

4277

帖子

472

积分

部将

Rank: 3Rank: 3

UID
531243
积分
472
冰币
5133
威望
0
发表于 2018-5-2 22:07:41 | 显示全部楼层
谢谢版主!幸苦啦!
回复 支持 反对

使用道具 举报

本版积分规则

手机版|小黑屋|冰冰网 ( 粤ICP备10024810号-1 )

GMT+8, 2018-5-27 16:02

Powered by www.discuz.net Discuz! X3.4

© 2001-2012 Comsenz Inc sitemap a67 s80


本站影视音乐资源来自互联网免费共享,仅供交流学习之用,版权归作者本人所有,如果侵犯了您的权益,请通知我们,邮箱地址mail@aapig.com
快速回复 返回顶部 返回列表